вход на сайт

Имя пользователя :
Пароль :

Восстановление пароля Регистрация
Студия 17 // Сезон 1, Эпизоды 1 по 9 (из ??) (Комедия, 2013) [DVB, Не требуется]
Рейтинг:
(голосов: 1)



[img]{THEME}/images/logopost.png[/img]



• Студия 17 •
Сезон 1, Эпизоды 1 по 9 (из ??)
♥Год выпуска: 2013
♥Страна: Россия
♥Производство:
♥Жанр: Комедия

♥Режиссёр: Сергей Сенцов, Александр Наумов
♥В ролях: Валентин Гафт, Гоша Куценко, Константин Крюков, Евгений Стеблов, Анастасия Привалова, Валерий Сотов, Ирина Гавра, Семен Трескунов, Александр Молочников, Яна Кошкина, Анастасия Сова-Егорова, Алиса Феоктистова, Анастасия Клюева, Наталья Земцова, Карина Зверева, Николай Ларин (III), Андрей Москвичёв, Мария Дорогова, Чулпан Хаматова


♥Перевод: Не требуется
♥Субтитры: Нет

♥Описание: Они хотят успеха, денег и женщин. Но все, что у них есть сейчас, это старая автомойка, которую они решают переделать под видеостудию. Свобода, дружба, любовь и общий бизнес - мечты сбываются, когда тебе 20 и вся жизнь впереди!




Все раздачи сериала


♥ Качество: DVB
♥ Продолжительность: по ~00:45:00

♥ Формат: TS
♥ Видео кодек AVC
♥ Аудио кодек: MP2
♥ Свойства видео: 720х576 (4:3), 25 fps, AVC ~1 880 kbps avg, 0.181 bit/pixel
♥ Свойства Аудио: 48 kHz, MP2, 2 ch, ~192 kbps avg MI: ▼
General #1
ID : 1 (0x1)
Complete name : G:КОМЕДИИСтудия 17Студия 17 - 01 серия.ts
Format : MPEG-TS
File size : 645 MiB
Duration : 41mn 20s
Overall bit rate mode : Variable
Overall bit rate : 2 182 Kbps
Video #4113
ID : 4113 (0x1011)
Menu ID : 1 (0x1)
Format : AVC
Format/Info : Advanced Video Codec
Format profile : [email protected]
Format settings, CABAC : Yes
Format settings, ReFrames : 3 frames
Codec ID : 27
Duration : 41mn 20s
Bit rate mode : Variable
Bit rate : 1 880 Kbps
Maximum bit rate : 40.0 Mbps
Width : 720 pixels
Height : 576 pixels
Display aspect ratio : 4:3
Frame rate : 25.000 fps
Standard : Component
Color space : YUV
Chroma subsampling : 4:2:0
Bit depth : 8 bits
Scan type : Interlaced
Scan order : Top Field First
Bits/(Pixel*Frame) : 0.181
Stream size : 556 MiB (86%)
Color primaries : BT.470-6 System B, BT.470-6 System G, BT.601-6 625, BT.1358 625, BT.1700 625 PAL, BT.1700 625 SECAM
Transfer characteristics : BT.470-6 System B, BT.470-6 System G
Matrix coefficients : BT.470-6 System B, BT.470-6 System G, BT.601-6 625, BT.1358 625, BT.1700 625 PAL, BT.1700 625 SECAM, IEC 61966-2-4 601
Audio #4352
ID : 4352 (0x1100)
Menu ID : 1 (0x1)
Format : MPEG Audio
Format version : Version 1
Format profile : Layer 2
Codec ID : 3
Duration : 41mn 20s
Bit rate mode : Constant
Bit rate : 192 Kbps
Channel(s) : 2 channels
Sampling rate : 48.0 KHz
Compression mode : Lossy
Stream size : 56.8 MiB (9%)
Language : English

Внимание! Раздача ведётся путём добавления новых серий; ▼При каждом добавлении создаётся новый торрент. Чтобы начать докачку новой серии, пользователям необходимо сделать следующее:
(1) остановить скачивание,
(2) удалить старый торрент у себя из клиента (старые серии удалять не надо),
(3) скачать новый торрент и запустить его у себя в клиенте вместо старого, при этом указать клиенту путь в старую папку куда и должно происходить скачивание новых серий.
Ваш клиент при этом должен произвести хеширование (проверку) старой папки (если не производит сам - помогите ему сделать это), и будет докачивать только те серии которых у вас ещё нет. Старые серии при этом не удаляются, а продолжают раздаваться!
Eсли вы уже удалили старые серии, то предотвратить повторную закачку старых серий можно, отжав галочку в соответствующих местах при запуске нового торрента. По возможности, желательно не удалять старые серии как можно дольше чтобы релизёр не столько продолжал раздавать старые серии, а смог сконцентрироваться на новых.
------------------------------------------------------------------
Как закачать отдельный файл из торрента!

Релиз Группы "Virtus"

Стол заказов / Вступление в РГ / Благодарности, критика и другое


9a6ba3ffe3042b9e53f41bf4904e05891f092bd0Студия 17 // Сезон 1, Эпизоды 1 по 9 (из ??) (Комедия, 2013) [DVB, Не требуется] Студия 17 // Сезон 1, Эпизоды 1 по 9 (из ??) (Комедия, 2013) [DVB, Не требуется] " />

Аплоадер: Админ, дата: 14-10-2013, 21:00, торрент скачан: 359 раз

Понравилась раздача? Посмотрите эти:
  • Паутина // Сезон 7, Эпизоды с 1 по 3 (из 16) (Детектив, 2013) [SATRip, Не т ...
  • Восьмидесятые // Сезон 3, Эпизоды с 1 по 15 (из ??) (Комедия, 2013) [SATRip ...
  • Неzлоб // Сезон 1, Эпизоды с 1 по 7 (из ??) (Комедия, 2013) [WEB-DLRip, Не ...
  • Домработница // Эпизоды с 1 по 46 (из ??) (Мелодрама, 2013) [SATRip, Не тр ...
  • Неzлоб // Сезон 1, Эпизоды с 1 по 6 (из ??) (Комедия, 2013) [WEB-DLRip, Не ...
  • Студия 17 // Сезон 1, Эпизоды 1 по 16 (из 16) (Комедия, 2013) [SATRip, Не т ...
  • Домработница // Эпизоды с 1 по 39 (из ??) (Мелодрама, 2013) [SATRip, Не тр ...
  • Домработница // Эпизоды с 1 по 5 (из 20) (Мелодрама, 2013) [SATRip, Не тре ...
  • Особый случай // Эпизоды c 1 по 45 (из 50) (Драма, мистика, криминал, 2013) ...
  • Особый случай // Эпизоды c 1 по 31 (из 50) (Драма, мистика, криминал, 2013) ...
  • Пираньи // Эпизоды с 1 по 2 (из 8) (Приключения, 2013) [SATRip, Не требуетс ...
  • Злые птички / Angry Birds Toons // Сезон 1, эпизоды c 1 по 11 (из 52) (муль ...
  • Сочинский сериал Непосредственно Каха // Сезон 2, Эпизод 1 (из ???) (Юмор, ...
  • Злые птички / Angry Birds Toons // Сезон 1, эпизоды c 1 по 10 (из 52) (муль ...
  • Сочинский сериал Непосредственно Каха // Сезон 1, Эпизоды с 1 по 18 (из ??) ...
  • Сочинский сериал Непосредственно Каха // Сезон 1, Эпизоды с 1 по 17 (из ??) ...
  • Злые птички / Angry Birds Toons // Сезон 1, эпизоды c 1 по 5 (из 52) (мульт ...
  • Страна в shope // Сезон 1, эпизоды с 1 по 9 (из ??) (Комедия, 2013) [SATRip ...
  • Злые птички / Angry Birds Toons // Сезон 1, эпизоды c 1 по 4 (из 52) (мульт ...
  • Страна в shope // Сезон 1, эпизоды с 1 по 8 (из ??) (Комедия, 2013) [SATRip ...
  • Злые птички / Angry Birds Toons // Сезон 1, эпизоды c 1 по 3 (из 52) (мульт ...
  • Сочинский сериал Непосредственно Каха // Сезон 1, Эпизоды с 1 по 14 (из ??) ...
  • Страна в shope // Сезон 1, эпизоды с 1 по 6 (из ??) (Комедия, 2013) [SATRip ...
  • Страна в shope // Сезон 1, эпизоды с 1 по 5 (из ??) (Комедия, 2013) [SATRip ...
  • Дежурный ангел 2 // Сезон 2, эпизоды с 1 по 24 (из 24) (Драма, 2012) [SATR ...
  • Информация
    Посетители, находящиеся в группе Гости, не могут оставлять комментарии к данной публикации.