вход на сайт

Имя пользователя :
Пароль :

Восстановление пароля Регистрация
Семья алкоголика // Эпизоды с 1 по 5 (из ?) (pеалити, комедия, сериал, 2012) [WEBRip 720p, не требуется]
Рейтинг:
(голосов: 1)



[img]{THEME}/images/logopost.png[/img]



Семья алкоголика

Эпизоды с 1 по 5 (из ?)

Год выпуска: 2011
Страна: Россия
Производство: [...]streetArt
Жанр: pеалити, комедия, cериал

Режиссёр: Андрей Крупин
В ролях: Сергей Кудряшов, Татьяна Голубева, Денис Усин, Сергей Ровин, ВоВееВо, Светлана Якина, Слава Антонов, Аурика Андрей

Перевод: не требуется
Субтитры:нет

Описание
Семья алкоголиков - сериал, создатели которого по всей видимости пытаются высмеять повседневный рутиный быт обычных людей на примере семьи алкоголика Серёги. Главным героем сериала "Семья алкоголика", как вы уже наверное догадались является Серёга. Его сценический образ не далеко отошёл от реальной жизни - Серёга является самым, что ни на есть обыкновенным алкоголиком и не скрывает этого. Семья его не мала не велика: жена - истеричка-клептоманка, сын гомосек и дочь, которая мотает срок в КПЗ.



Тех. данные
Качество: WEBRip 720p
Продолжительность: по ~ 00:12:00 часа

Формат: mp4
Видео кодек: AVC [email protected]
Аудио кодек: Advanced Audio Codec
Свойства видео: 1280x720 (16:9), 25.00 fps, AVC, ~1724 kbps avg, 0.075 bit/pixel
Свойства аудио: 44.100 kHz, Advanced Audio Codec, 2 ch, ~151 kbps

MediaInfo ▼TextОбщее
Полное имя : D:Downloads�1.Семья алкоголика.mp4
Формат : MPEG-4
Профиль формата : Base Media / Version 2
Идентификатор кодека : mp42
Размер файла : 129 Мбайт
Продолжительность : 9 м. 38 с.
Режим общего битрейта : Переменный
Общий поток : 1877 Кбит/сек
Дата кодирования : UTC 2012-02-14 14:08:33
Дата пометки : UTC 2012-02-14 14:08:33
gsst : 0
gstd : 578408
gssd : BC37A1007HH1333742329070391
gshh : o-o.preferred.lattelecom-rix1.v20.lscache2.c.youtube.com

Видео
Идентификатор : 1
Формат : AVC
Формат/Информация : Advanced Video Codec
Профиль формата : [email protected]
Параметр CABAC формата : Да
Параметр ReFrames формата : 1 кадр
Идентификатор кодека : avc1
Идентификатор кодека/Информация : Advanced Video Coding
Продолжительность : 9 м. 38 с.
Битрейт : 1724 Кбит/сек
Максимальный битрейт : 5349 Кбит/сек
Ширина : 1280 пикселей
Высота : 720 пикселей
Соотношение сторон : 16:9
Режим частоты кадров : Постоянный
Частота кадров : 25,000 кадров/сек
Цветовое пространство : YUV
Субдискретизация насыщенности : 4:2:0
Битовая глубина : 8 бит
Тип развёртки : Прогрессивная
Бит/(Пиксели*Кадры) : 0.075
Размер потока : 119 Мбайт (92%)
Дата пометки : UTC 2012-02-14 14:08:33

Аудио
Идентификатор : 2
Формат : AAC
Формат/Информация : Advanced Audio Codec
Профиль формата : LC
Идентификатор кодека : 40
Продолжительность : 9 м. 38 с.
Вид битрейта : Переменный
Битрейт : 151 Кбит/сек
Максимальный битрейт : 221 Кбит/сек
Каналы : 2 канала
Расположение каналов : Front: L R
Частота : 44,1 КГц
Метод сжатия : С потерями
Размер потока : 10,4 Мбайт (8%)
Заголовок : IsoMedia File Produced by Google, 5-11-2011
Дата кодирования : UTC 2012-02-14 14:08:33
Дата пометки : UTC 2012-02-14 14:08:33


Внимание! Раздача ведётся путём добавления новых серий; ▼При каждом добавлении создаётся новый торрент. Чтобы начать докачку новой серии, пользователям необходимо сделать следующее:
(1) остановить скачивание,
(2) удалить старый торрент у себя из клиента (старые серии удалять не надо),
(3) скачать новый торрент и запустить его у себя в клиенте вместо старого, при этом указать клиенту путь в старую папку куда и должно происходить скачивание новых серий.
Ваш клиент при этом должен произвести хеширование (проверку) старой папки (если не производит сам - помогите ему сделать это), и будет докачивать только те серии которых у вас ещё нет. Старые серии при этом не удаляются, а продолжают раздаваться!
Eсли вы уже удалили старые серии, то предотвратить повторную закачку старых серий можно, отжав галочку в соответствующих местах при запуске нового торрента. По возможности, желательно не удалять старые серии как можно дольше чтобы релизёр не столько продолжал раздавать старые серии, а смог сконцентрироваться на нов
9a7e22f370b5d762c35f883c453d451760106ed7Семья алкоголика // Эпизоды с 1 по 5 (из ?) (pеалити, комедия, сериал, 2012) [WEBRip 720p, не требуется] Семья алкоголика // Эпизоды с 1 по 5 (из ?) (pеалити, комедия, сериал, 2012) [WEBRip 720p, не требуется] " />

Аплоадер: Админ, дата: 10-11-2012, 20:19, торрент скачан: 359 раз

Понравилась раздача? Посмотрите эти:
  • Сэм и Кэт / Sam & Cat // Сезон 1, эпизоды с 1 по 4 (из 40) (комедия, семейн ...
  • Герои / Закаты алые [2012, Pop, WebRip]
  • Miranda Cosgrove / Dancing Crazy [2011, Pop, WEB-DLRip 720p]
  • Ariana Grande - ft. Mac Miller / The Way [2013, Pop, WEB-DLRip 1080p]
  • Принуждение к прививке / Impf-Zwang (документальный, 2012) [HD 720p, Профес ...
  • Сочинский сериал Непосредственно Каха // Сезон 2, Эпизод 1 (из ???) (Юмор, ...
  • Сочинский сериал Непосредственно Каха // Сезон 1, Эпизоды с 1 по 18 (из ??) ...
  • Плебеи / Plebs // Сезон 1, эпизоды с 1 по 5 (из 6) (Комедия, 2013) [WEB-DLr ...
  • Сочинский сериал Непосредственно Каха // Сезон 1, Эпизоды с 1 по 17 (из ??) ...
  • Семья алкоголика // Эпизоды с 1 по 6 (из ?) (pеалити, комедия, сериал, 2012 ...
  • Плебеи / Plebs // Сезон 1, эпизоды с 1 по 2 (из 6) (Комедия, 2013) [HDTVRip ...
  • Сочинский сериал Непосредственно Каха // Сезон 1, Эпизоды с 1 по 14 (из ??) ...
  • ЧТО? ГДЕ? КОГДА? - весь 2012 год. Добавлен ФИНАЛ года (Интеллектуальная игр ...
  • E-40 & Too Short Dump Truck Feat. Travis Porter/ Function Music [2012, Rap| ...
  • Непосредственно Каха // Сезон 1, выпуски с 1 по 10 (из ??) (Юмор, 2012 - 13 ...
  • Непосредственно Каха // Сезон 1, выпуски с 1 по 9 (из ??) (Юмор, 2012 - 13) ...
  • Лион / День за днем (Интро) [2012, Rap, WebRip]
  • Қайрат Нұртас / Ол сен емес [2012, Pop, WebRip ]
  • [Трейлер] Ходячие Мертвецы / The Walking Dead [3-й сезон] (Эрнест Р. Дикер ...
  • Птаха, Musa, Док / Миф [2012, Rap, WEBRip]
  • Информация
    Посетители, находящиеся в группе Гости, не могут оставлять комментарии к данной публикации.