вход на сайт

Имя пользователя :
Пароль :

Восстановление пароля Регистрация
Шаман // Сезон 1, Эпизоды с 1 по 16 (из 16) (Драма, Криминал, 2011) [DVDRip, Не требуется]
Рейтинг:
(голосов: 1)



[img]{THEME}/images/logopost.png[/img]



Шаман
Сезон 1, Эпизоды с 1 по 16 (из 16)
Год выпуска: 2011
Страна: Россия
Производство: ООО "Гамма-продакшн"
Жанр: Драма, Криминал

Режиссёр: Максим Кубринский
В ролях: Владимир Скворцов, Игорь Ботвин, Ян Цапник, Сергей Мардарь, Кирилл Щербина, Светлана Щедрина, Виталий Коваленко, Владимир Карпов, Евгений Катаев, Виталий Куклин, Анна Пескова, Анатолий Хропов, Алексей Лысенко, Константин Фисенко, Алексей Фокин, Михаил Сидаш, Тимофей Будкевич, Валерий Ошомков, Роман Павлушев, Юлия Сафонова, Алена Старостина, Сергей Бадюк, Дарья Циберкина

Перевод: Не требуются
Субтитры:Нет
Описание
После двух лет, проведенных в СИЗО, на свободу выходит следователь СКП Иван Шаманов. У него есть сын, коллеги, азарт и работа, а также скверный характер и отличное чувство юмора. Он любвеобилен — и красотки отвечают ему взаимностью. Его главный враг — Корнеев, человек, из-за которого Шаман и попал за решетку. Шаман слишком крутой в своей профессии — и это не может оставить равнодушными тех, с кем он борется: преступники его боятся, запугивают и пытаются убрать. Но Шаман точно знает, что сила — в правде. А потому всегда на шаг опережает злодеев. Но кто победит в итоге?
Доп. информация
Mediainfo ▼TextФормат : AVI
Формат/Информация : Audio Video Interleave
Размер файла : 696 Мбайт
Продолжительность : 45 м.
Общий поток : 2118 Кбит/сек
Программа кодирования : VirtualDubMod 1.5.10.3 | www.virtualdub-fr.org || (build 2550/release)
Библиотека кодирования : VirtualDubMod build 2550/release

Видео
Идентификатор : 0
Формат : MPEG-4 Visual
Профиль формата : Advanced [email protected]
Параметр BVOP формата : 2
Параметр QPel формата : Нет
Параметр GMC формата : Без точки перехода
Параметр матрицы формата : Default (MPEG)
Идентификатор кодека : XVID
Идентификатор кодека/Подсказка : XviD
Продолжительность : 45 м.
Битрейт : 1852 Кбит/сек
Ширина : 720 пикселей
Высота : 400 пикселей
Соотношение сторон : 16:9
Частота кадров : 25,000 кадров/сек
Цветовое пространство : YUV
Субдискретизация насыщенности : 4:2:0
Битовая глубина : 8 бит
Тип развёртки : Прогрессивная
Метод сжатия : С потерями
Бит/(Пиксели*Кадры) : 0.257
Размер потока : 609 Мбайт (87%)
Библиотека кодирования : XviD 1.2.1 (UTC 2008-12-04)

Аудио
Идентификатор : 1
Формат : AC-3
Формат/Информация : Audio Coding 3
Расширение режима : CM (complete main)
Параметр Endianness формата : Big
Идентификатор кодека : 2000
Продолжительность : 45 м.
Вид битрейта : Постоянный
Битрейт : 256 Кбит/сек
Каналы : 2 канала
Расположение каналов : Front: L R
Частота : 48,0 КГц
Битовая глубина : 16 бит
Метод сжатия : С потерями
Размер потока : 84,1 Мбайт (12%)
Выравнивание : Разделение по промежуткам
Продолжительность промежутка : 40 мс. (1,00 видеокадр)
Время предзагрузки промежутка : 500 мс.[/ code]


Тех. данные
Качество: DVDRip,
Продолжительность: 00:45:00 час.

Формат: AVI,
Видео кодек: XviD,
Аудио кодек: AС3,
Видео: 720x400 (1.80:1), 25 fps, XviD build 50 ~1852 kbps avg, 0.26 bit/pixel
Аудио: 48 kHz, AC3 Dolby Digital, 2/0 (L,R) ch, ~256 kbps


|Cтол заказов| Наши раздачи| Набор в группу| Сказать спасибо|
Раздача идет до 10 человек, не уходите с раздачи и не забываем говорит Спасибо


8df005686097f243283523c05f971a2ee0f05f99Шаман // Сезон 1, Эпизоды с 1 по 16 (из 16) (Драма, Криминал, 2011) [DVDRip, Не требуется] Шаман // Сезон 1, Эпизоды с 1 по 16 (из 16) (Драма, Криминал, 2011) [DVDRip, Не требуется] " />

Аплоадер: Админ, дата: 15-04-2012, 06:29, торрент скачан: 359 раз

Понравилась раздача? Посмотрите эти:
  • Бойфренд из будущего / About Time (Ричард Кёртис, Фантастика, драма, комеди ...
  • Околофутбола (Антон Борматов, драма, криминал, 2013) [DVDRip, Не требуется] ...
  • Околофутбола (Антон Борматов, драма, криминал, 2013) [DVDRip, Не требуется] ...
  • Я буду рядом (Павел Руминов, Драма, 2012) [DVDRip, Не требуется]
  • Это - Англия. Год 1986 / This Is England 86 // Сезон 1, эпизоды с 1 по 4 (и ...
  • К черному морю (Андрей Тутышкин, мелодрама, комедия, 1957) [DVDRip, не треб ...
  • Вот я какой/ Thats What I Am (Майкл Павоне, Драма, 2011) [HDRip, Профессион ...
  • Злые птицы: Хэллоуин / Angry Birds: HamOWeen (Джей Ройвайнен, Мультфильм, к ...
  • Отбой / Taps (Харольд Беккер, Драма, 1981) [DVDRip, Профессиональный (много ...
  • Кажется, я люблю свою жену / I Think I Love My Wife (Крис Рок, Драма, мелод ...
  • Я тоже хочу (Алексей Балабанов, драма, криминал, 2012) [DVDRip, Не требуетс ...
  • Вечерний Ургант // Сезон 2. Выпуск 56 (ТВ-шоу, 11.12.2012) [SATRip, Не треб ...
  • 1812: Уланская баллада (Олег Фесенко, приключения, 2012) [DVDRip, Не требуе ...
  • Любовь по расписанию / Поезд (Сергей Мезенцев, мелодрама, 2012) [HDTVRip, Н ...
  • Вечерний Ургант // Сезон 2. Выпуск 62 (ТВ-шоу, 19.12.2012) [SATRip, Не треб ...
  • Вечерний Ургант // Сезон 2. Выпуск 63 (ТВ-шоу, 20.12.2012) [SATRip, Не треб ...
  • Вечерний Ургант // Сезон 2. Выпуск 66 (ТВ-шоу, 25.12.2012) [SATRip, Не треб ...
  • Вечерний Ургант // Сезон 2. Выпуск 68 (ТВ-шоу, 27.12.2012) [SATRip, Не треб ...
  • Дорога на... / Road to (Таисия Игуменцева, Комедия, короткометражный, 2011) ...
  • А что насчет тебя? / How About You (Энтони Бирн, Драма, комедия, 2007) [DVD ...
  • Кошмар / Nightmare / Qing Yan (Херман Яу, ужасы, триллер, 2012) [DVDRip, Лю ...
  • Шаман // Сезон 1, Эпизоды с 1 по 16 (из 16) (Драма, Криминал, 2011) [SATRip ...
  • Коммуналка (Максим Бриус, криминал, боевик, 2011) [DVDRip, Не требуется]
  • Баллада о бомбере (Виталий Воробьев, военный, 2011) [BDRip, не требуется]
  • Человек из банки (Иван Кульнев, Комедия, 2012) [DVDRip, Не требуется]
  • Информация
    Посетители, находящиеся в группе Гости, не могут оставлять комментарии к данной публикации.