вход на сайт

Имя пользователя :
Пароль :

Восстановление пароля Регистрация
Интерны // Эпизод 181. Новогодний выпуск (Комедия, 2013) [WEB-DL 720p, Не требуется]
Рейтинг:
(голосов: 1)



[img]{THEME}/images/logopost.png[/img]



Интерны // Эпизод 181. Новогодний выпуск
Год выпуска: 2013
Страна: Россия
Производство: Телеканал ТНТ
Жанр: Комедия

Режиссер: Радда Новикова
В ролях: Иван Охлобыстин, Кристина Асмус, Илья Глинников, Александр Ильин мл., Вадим Демчог, Светлана Камынина, Светлана Пермякова, Один Ланд Байрон, Заур Болотаев, Максим Пежемский, Семен Слепаков, Вячеслав Дусмухаметов

Перевод: Не требуется

Описание: Самую страшную ошибку доктор Кисегач совершила перед Новым Годом, назначив больничным Дедом Морозом доктора Быкова. Мало того, что он сам не любит этот праздник, так еще и остальным испортить его умудрится. Будет весело!


Качество: WEB-DL (720p)
Продолжительность: ~00:24:30

Формат: MKV
Видео кодек: H.264
Аудио кодек: AC3
Свойства видео: 1280x720 (16:9), 25 fps, AVC ~2975 kbps avg, 0.129 bit/pixel
Свойства аудио: 48 kHz, AC3, 2 ch, ~192.00 kbps avg
MediaInfo: ▼Общее
Уникальный идентификатор : 182143044642893354982712423389483484777 (0x890779713A2DFDC5B7E26FEFB3AFC669)
Полное имя : C:UsersuserDownloadsInterny.181.2013.WEB-DL.(720p).mkv
Формат : Matroska
Версия формата : Version 4 / Version 2
Размер файла : 576 Мбайт
Продолжительность : 24 м.
Общий поток : 3232 Кбит/сек
Дата кодирования : UTC 2013-12-31 10:38:18
Программа кодирования : mkvmerge v6.3.0 (You cant stop me!) built on Jun 28 2013 20:09:41
Библиотека кодирования : libebml v1.3.0 + libmatroska v1.4.0

Видео
Идентификатор : 1
Формат : AVC
Формат/Информация : Advanced Video Codec
Профиль формата : [email protected]
Параметр CABAC формата : Да
Параметр ReFrames формата : 8 кадров
Идентификатор кодека : V_MPEG4/ISO/AVC
Продолжительность : 24 м.
Битрейт : 2975 Кбит/сек
Ширина : 1280 пикселей
Высота : 720 пикселей
Соотношение сторон : 16:9
Режим частоты кадров : Постоянный
Частота кадров : 25,000 кадров/сек
Цветовое пространство : YUV
Субдискретизация насыщенности : 4:2:0
Битовая глубина : 8 бит
Тип развёртки : Прогрессивная
Бит/(Пиксели*Кадры) : 0.129
Размер потока : 530 Мбайт (92%)
Библиотека кодирования : x264 core 125
Настройки программы : cabac=1 / ref=8 / deblock=1:-1:-1 / analyse=0x3:0x133 / me=umh / subme=9 / psy=1 / psy_rd=1.00:0.15 / mixed_ref=1 / me_range=16 / chroma_me=1 / trellis=2 / 8x8dct=1 / cqm=0 / deadzone=21,11 / fast_pskip=1 / chroma_qp_offset=-3 / threads=18 / lookahead_threads=3 / sliced_threads=0 / nr=0 / decimate=1 / interlaced=0 / bluray_compat=0 / constrained_intra=0 / bframes=3 / b_pyramid=2 / b_adapt=2 / b_bias=0 / direct=3 / weightb=1 / open_gop=0 / weightp=2 / keyint=100 / keyint_min=10 / scenecut=40 / intra_refresh=0 / rc_lookahead=60 / rc=crf / mbtree=1 / crf=17.0 / qcomp=0.60 / qpmin=0 / qpmax=69 / qpstep=4 / vbv_maxrate=3600 / vbv_bufsize=3600 / crf_max=0.0 / nal_hrd=none / ip_ratio=1.40 / aq=1:1.00
Default : Да
Forced : Да

Аудио
Идентификатор : 2
Формат : AC-3
Формат/Информация : Audio Coding 3
Расширение режима : CM (complete main)
Параметр Endianness формата : Big
Идентификатор кодека : A_AC3
Продолжительность : 24 м.
Вид битрейта : Постоянный
Битрейт : 192 Кбит/сек
Каналы : 2 канала
Расположение каналов : Front: L R
Частота : 44,1 КГц
Битовая глубина : 16 бит
Метод сжатия : С потерями
Задержка видео : -80 мс.
Размер потока : 34,2 Мбайт (6%)
Язык : Russian
Default : Да
Forced : Да


b68918e245fa1cd9b9bbf6c7f8e533d5100e574aИнтерны // Эпизод 181. Новогодний выпуск (Комедия, 2013) [WEB-DL 720p, Не требуется] Интерны // Эпизод 181. Новогодний выпуск (Комедия, 2013) [WEB-DL 720p, Не требуется] " />

Аплоадер: Админ, дата: 31-12-2013, 17:02, торрент скачан: 359 раз

Понравилась раздача? Посмотрите эти:
  • Подглядывающий на кухне / Kick the Cock (Тинто Брасс, Эротика, короткометра ...
  • Джобс: Империя соблазна / jOBS (Джошуа Майкл Штерн, драма, биография, 2013) ...
  • Околофутбола (Антон Борматов, драма, криминал, 2013) [BDRip 720p, Не требуе ...
  • Усатый нянь (Владимир Грамматиков, комедия, семейный, 1977) [DVDRip-AVC, Не ...
  • Иллюзия обмана / Now You See Me [Extended Cut] (Луи Летерье, триллер, крими ...
  • Интимные места (Наталья Меркулова, Алексей Чупов, драма, мелодрама, 2013) [ ...
  • Заклятие / The Conjuring (Джеймс Ван, ужасы, триллер, 2013) [BDRip 720р, Ду ...
  • Лавлэйс / Lovelace (Роб Эпштейн, Джеффри Фридман, драма, биография, 2013) [ ...
  • Марафон (Карен Оганесян, комедия, 2013) [DVDRip-AVC, Не требуется]
  • Даю год / I Give It a Year (Дэн Мазер, мелодрама, комедия, 2012) [BDRip-AVC ...
  • Суррогат / The Sessions (Бен Луин, Драма, 2012) [BDRip-AVC, Профессиональны ...
  • Чемпионат Англии 2012-2013 / 25-й тур / Обзор / Суббота / BBC Sport [2013 г ...
  • Чемпионат Англии 2012-2013 / 25-й тур / Обзор / Воскресенье / BBC Sport [20 ...
  • Сид, инструкция по выживанию / Surviving Sid (Гален Т. Чу / Galen T. Chu, К ...
  • Безумные мелодии: Кажется я видел котика / Looney Tunes: I Tawt I Taw а Pud ...
  • Скрат: Потерянный орех / Scrat: Gone Nutty (Карлос Салдана, короткометражка ...
  • Лоракс: Серенада / The Lorax: Serenade (Кайл Балда, мультфильм, комедия, му ...
  • [NG] Гитлеровские лагеря смерти / Hitlers G.I. Death Camp (документальный, ...
  • Чемпионат Англии 2012-2013 / 19-й тур / Обзор / Среда / BBC Sport [2012 г., ...
  • Чемпионат Англии 2012-2013 / 23-й тур / Обзор / Суббота / BBC Sport [2013 г ...
  • Чемпионат Англии 2012-2013 / 22-й тур / Обзор / Суббота / BBC Sport [2013 г ...
  • Чемпионат Англии 2012-2013 / 21-й тур / Обзор / Вторник / BBC Sport [2013 г ...
  • Чемпионат Англии 2012-2013 / 21-й тур / Обзор / Среда / BBC Sport [2013 г., ...
  • Кубок Англии 2012-2013 / 3-й раунд / Обзор / Суббота / ITV 1 HD [2013 г., ф ...
  • Кубок Англии 2012-2013 / 3-й раунд / Обзор / Воскресенье / ITV Sport [2013 ...
  • Информация
    Посетители, находящиеся в группе Гости, не могут оставлять комментарии к данной публикации.