вход на сайт

Имя пользователя :
Пароль :

Восстановление пароля Регистрация
Формула 1 2011 / Этап 17 из 19 / Гран-При Индии / Гонка / Спорт 1 [30.10.2011, SD, XviD, RU, HDTVRip]
Рейтинг:
(голосов: 1)



[img]{THEME}/images/logopost.png[/img]



Гран При Индии

Год выпуска:2011
Вид спорта:Формула 1
Язык комментариев:Русский (Алексей Попов)
Участники:Гонщики Формулы 1

Описание:Гран-при Индии сезона 2011.

Качество:HDTVRip
Продолжительность:02:12:47

Формат:AVI
Видео кодек:XviD
Аудио кодек:MP3
Видео:720x400 (1.80:1), 25 fps, XviD build 50 ~1707 kbps avg, 0.24 bit/pixel
Аудио:48 kHz, MPEG Layer 3, 2 ch, ~128.00 kbps avg "MediaInfo" ▼
General
Complete name : D:VideoRace.avi
Format : AVI
Format/Info : Audio Video Interleave
File size : 1.70 GiB
Duration : 2h 12mn
Overall bit rate : 1 837 Kbps
Writing library : Boilsoft AVI tool build 1/release
Video #0
ID : 0
Format : MPEG-4 Visual
Format profile : [email protected]
Format settings, BVOP : Yes
Format settings, QPel : No
Format settings, GMC : No warppoints
Format settings, Matrix : Default (MPEG)
Codec ID : XVID
Codec ID/Hint : XviD
Duration : 2h 12mn
Bit rate : 1 700 Kbps
Width : 720 pixels
Height : 400 pixels
Display aspect ratio : 16:9
Frame rate : 25.000 fps
Resolution : 24 bits
Colorimetry : 4:2:0
Scan type : Progressive
Bits/(Pixel*Frame) : 0.236
Stream size : 1.58 GiB (93%)
Writing library : XviD 1.2.1 (UTC 2008-12-04)
Audio #1
ID : 1
Format : MPEG Audio
Format version : Version 1
Format profile : Layer 3
Codec ID : 55
Codec ID/Hint : MP3
Duration : 2h 12mn
Bit rate mode : Constant
Bit rate : 128 Kbps
Channel(s) : 2 channels
Sampling rate : 48.0 KHz
Resolution : 16 bits
Stream size : 122 MiB (7%)
Alignment : Split accross interleaves
Interleave, duration : 40 ms (1.00 video frame)
Interleave, preload duration : 500 ms



c7ba2e6cad8b5580ad22090cc8db97296bcc01baФормула 1 2011 / Этап 17 из 19 / Гран-При Индии / Гонка / Спорт 1 [30.10.2011, SD, XviD, RU, HDTVRip] Формула 1 2011 / Этап 17 из 19 / Гран-При Индии / Гонка / Спорт 1 [30.10.2011, SD, XviD, RU, HDTVRip] " />

Аплоадер: Админ, дата: 30-10-2011, 19:50, торрент скачан: 359 раз

Понравилась раздача? Посмотрите эти:
  • Формула 1 / Сезон 2013 / Этап 17 / Гран-при Абу-Даби / Гонка / Спорт 1 HD [ ...
  • Формула 1 / Сезон 2013 / Этап 14 / Гран-при Южной Кореи / Гонка / Спорт 1 H ...
  • Формула 1 / Сезон 2013 / Этап 15 / Гран-при Японии / Гонка / Спорт 1 HD [ав ...
  • Формула 1 / Сезон 2013 / Этап 16 / Гран-при Индии / Гонка / Спорт 1 HD [авт ...
  • Формула 1 / Сезон 2013 / Этап 16 / Гран-при Индии / Гонка / Спорт 1 HD [авт ...
  • Формула 1 / Сезон 2013 / Этап 12 / Гран-при Италии / Гонка / Спорт 1 HD [Фо ...
  • Формула 1 / Сезон 2013 / Этап 12 / Гран-при Италии / Гонка / Спорт 1 HD [Фо ...
  • Формула 1 / Сезон 2013 / Этап 09 / Гран При Германии / Гонка [автоспорт,07 ...
  • Формула 1 / Сезон 2013 / Этап 10 / Гран При Венгрии / Гонка [28.07.2013, Ф ...
  • Формула 1. Гран-При Бельгии / Сезон 2011 / Этап 12 из 19. Гонка [Формула 1, ...
  • Формула 1 / Сезон 2012 / Этап 18 из 20 / Гран-при ОАЭ (Абу-Даби) / Квалифик ...
  • Формула 1. Гран-При Европы / Сезон 2011 / Этап 8 из 20. Гонка [Формула 1, 2 ...
  • Формула 1. Гран-При Великобритании / Сезон 2011 / Этап 9 из 19. Гонка [Форм ...
  • Формула 1. Гран-При Венгрии / Сезон 2011 / Этап 11 из 19. Гонка [Формула 1, ...
  • Формула 1. Гран-При Сингапура / Сезон 2011 / Этап 14 из 19. Гонка [Формула ...
  • Формула 1 / Гран-При Японии / Сезон 2011 / Этап 15 из 19 / Гонка / Спорт 1 ...
  • Формула 1 / Гран-При Кореи / Сезон 2011 / Этап 16 из 19 / Гонка / Спорт 1 [ ...
  • Формула 1 / Гран-При Австралии / Сезон 2012 / Этап 1 из 20 / Гонка / Спорт ...
  • Формула 1. Гран-При Малайзии / Сезон 2012 / Этап 2 из 20. Гонка [Формула 1, ...
  • Формула 1 / Сезон 2012 / Этап 03 / Гран При Китая / Гонка [15.04.2012, Форм ...
  • Формула 1 / Сезон 2012 / Этап 8 из 20 / Гран-при Великобритании / Квалифика ...
  • Формула 1 / Гран-При Венгрии / Сезон 2012 / Этап 11 из 20 / Гонка / Спорт 1 ...
  • Формула 1 / Этап 15 из 20 / Гран При Японии / Гонка / Спорт 1 [автогонки, 0 ...
  • Формула 1 2012 / Этап 17 из 20 / Гран-При Индии / Полный уик-энд / Спорт 1 ...
  • Формула 1 2012 / Этап 18 из 20 / Гран-При Абу-Даби / Полный уик-энд / Спор ...
  • Информация
    Посетители, находящиеся в группе Гости, не могут оставлять комментарии к данной публикации.