вход на сайт

Имя пользователя :
Пароль :

Восстановление пароля Регистрация
NBA 2012-2013 / RS / 05.11.2012 / Phoenix Suns @ Miami Heat (Русская версия) [Баскетбол, 05.11.2012 ,WEB-DL HD/720p, MKV/H.264, RU/545TV] 60 fps
Рейтинг:
(голосов: 1)



[img]{THEME}/images/logopost.png[/img]



Phoenix Suns @ Miami Heat


Вид спорта:: Баскетбол
Год выпуска: 2012
Язык комментариев: РУССКИЙ!!!
Участники: Phoenix Suns @ Miami Heat

Описание:Регулярный сезон 2012-2013

Качество: HDTVRip
Продолжительность: 01:42:36

Формат:MKV
Видео кодек:H.264
Аудио кодек:AAC
Свойства видео: 16:9 1280 x 720 59.940 fps 4495 kbps
Свойства аудио: 44,1 KHz 2ch 128 kbps

Полные тех. данные:
▼C:UsersОлегDesktopNBA RS 05.11.2012 [email protected] - 720p (60 fps) (545TV-Максим Терещук).mkv
General
Unique ID : 234555359552388044995707782219056874732 (0xB075B8142CCBFE86B42F08BD826504EC)
Complete name : C:UsersОлегDesktopNBA RS 05.11.2012 [email protected] - 720p (60 fps) (545TV-Максим Терещук).mkv
Format : Matroska
Format version : Version 2
File size : 3.25 GiB
Duration : 1h 42mn
Overall bit rate : 4 540 Kbps
Encoded date : UTC 2012-11-06 08:35:23
Writing application : mkvmerge v4.9.1 (Ich will) сборка от Jul 11 2011 23:53:15
Writing library : libebml v1.2.1 + libmatroska v1.1.1
Video #1
ID : 1
Format : AVC
Format/Info : Advanced Video Codec
Format profile : [email protected]
Format settings, CABAC : Yes
Format settings, ReFrames : 3 frames
Muxing mode : Header stripping
Codec ID : V_MPEG4/ISO/AVC
Duration : 1h 42mn
Bit rate : 4 322 Kbps
Width : 1 280 pixels
Height : 720 pixels
Display aspect ratio : 16:9
Frame rate mode : Constant
Frame rate : 60.000 fps
Original frame rate : 59.940 fps
Color space : YUV
Chroma subsampling : 4:2:0
Bit depth : 8 bits
Scan type : Progressive
Bits/(Pixel*Frame) : 0.078
Stream size : 3.10 GiB (95%)
Default : Yes
Forced : No
Audio #2
ID : 2
Format : MPEG Audio
Format version : Version 1
Format profile : Layer 3
Mode : Joint stereo
Mode extension : MS Stereo
Muxing mode : Header stripping
Codec ID : A_MPEG/L3
Codec ID/Hint : MP3
Duration : 1h 42mn
Bit rate mode : Constant
Bit rate : 128 Kbps
Channel(s) : 2 channels
Sampling rate : 44.1 KHz
Compression mode : Lossy
Stream size : 93.9 MiB (3%)
Default : Yes
Forced : No
&n
bd0446c965b7102567748d854c4d1bcf3ce1de52NBA 2012-2013 / RS / 05.11.2012 / Phoenix Suns @ Miami Heat (Русская версия) [Баскетбол, 05.11.2012 ,WEB-DL HD/720p, MKV/H.264, RU/545TV] 60 fps NBA 2012-2013 / RS / 05.11.2012 / Phoenix Suns @ Miami Heat (Русская версия) [Баскетбол, 05.11.2012 ,WEB-DL HD/720p, MKV/H.264, RU/545TV] 60 fps " />

Аплоадер: Админ, дата: 6-11-2012, 18:04, торрент скачан: 359 раз

Понравилась раздача? Посмотрите эти:
  • NBA 2012-2013 / RS / Miami Heat @ Charlotte Bobcats [баскетбол, 05.04.2013, ...
  • NBA 2012-2013 / RS / Charlotte Bobcats @ Miami Heat [баскетбол, 24.03.2013, ...
  • NBA 2012-2013 / RS / Sacramento Kings @ Miami Heat [баскетбол, 26.02.2013,W ...
  • NBA 2012-2013 / RS / Miami Heat @ Toronto Raptors [баскетбол, 03.02.2013,WE ...
  • NBA 2012-2013 / RS / Houston Rockets @ Miami Heat [баскетбол, 06.02.2013,WE ...
  • NBA 2012-2013 / RS / Phoenix Suns @ Los Angeles Lakers [баскетбол,12.02.201 ...
  • NBA 2012-2013 / RS / Portland Trailblazers @ Miami Heat [баскетбол,12.02.2 ...
  • NBA 2012-2013 / RS / Miami Heat @ Atlanta Hawks [баскетбол, 20.02.2013,WEB ...
  • NBA 2012-2013 / RS / Miami Heat @ Chicago Bulls [баскетбол, 21.02.2013,WEB- ...
  • NBA 2011-2012 / RS / 12.04.2012 / Miami Heat @ Chicago Bulls [Баскетбол, WE ...
  • NBA 2012-2013 / Preseason / 20.10.2012 / San Antonio Spurs @ Miami Heat [Ба ...
  • NBA 2012-2013 / Preseason / Miami Heat @ Charlotte Bobcats [баскетбол, 23.1 ...
  • NBA 2012-2013 / Preseason / 26.10.2012 / New Orleans Hornets @ Miami Heat [ ...
  • NBA 2012-2013 / RS / 30.10.2012 / Boston Celtics @ Miami Heat [Баскетбол, W ...
  • NBA 2012-2013 / RS / 02.11.2012 / Miami Heat @ New York Knicks [Баскетбол, ...
  • NBA 2012-2013 / RS / Minnesota Timberwolves @ Miami Heat [баскетбол,18.12.2 ...
  • NBA 2012-2013 / RS / Miami Heat @ Dallas Mavericks [баскетбол,20.12.2012, W ...
  • NBA 2012-2013 / RS / Phoenix Suns @ Minnesota Timberwolves [баскетбол, 29.1 ...
  • NBA 2012-2013 / RS / Miami Heat @ Orlando Magic [баскетбол, 31.12.2012,WEB- ...
  • NBA 2012-2013 / RS / Dallas Mavericks @ Miami Heat [баскетбол, 02.01.2013,W ...
  • NBA 2012-2013 / RS / Chicago Bulls @ Miami Heat [баскетбол, 04.01.2013, WEB ...
  • NBA 2012-2013 / RS / Miami Heat @ Sacramento Kings [баскетбол, 12.01.2013,W ...
  • NBA 2012-2013 / RS / Miami Heat @ Los Angeles Lakers [баскетбол,17.01.2013, ...
  • NBA 2012-2013 / RS / Detroit Pistons @ Miami Heat [баскетбол, 25.01.2013,WE ...
  • NBA 2012-2013 / RS /Miami Heat @ Milwaukee Bucks [баскетбол, 29.12.2012,WEB ...
  • Информация
    Посетители, находящиеся в группе Гости, не могут оставлять комментарии к данной публикации.