вход на сайт

Имя пользователя :
Пароль :

Восстановление пароля Регистрация
Товарищеский матч / США - Бразилия / ESPN [16.07.2012, Баскетбол, WEB-DLRip, EN]
Рейтинг:
(голосов: 1)



[img]{THEME}/images/logopost.png[/img]



Товарищеский матч
США - Бразилия

Вид спорта: Баскетбол
Год выпуска: 16.07.2012
Язык комментариев: Английский
Участники: США - Бразилия
Описание: Товарищеский матч США - Бразилия. Лас - Вегас
Качество: WEB-DLRip
Продолжительность: 01:43:10
Формат: MKV
Видео кодек: H.264
Аудио кодек: MP3
Свойства видео: 1280x720, 25.000 fps, 1400 kbps
Свойства аудио: 44,1 kHz, stereo, 128 kbps
Тех. описание ▼
Format : Matroska
Format version : Version 2
File size : 1.13 GiB
Duration : 1h 43mn
Overall bit rate : 1 567 Kbps
Encoded date : UTC 2012-07-17 08:30:22
Writing application : mkvmerge v5.4.0 (Piper) built on Mar 10 2012 13:34:39
Writing library : libebml v1.2.3 + libmatroska v1.3.0

Video
ID : 2
Format : AVC
Format/Info : Advanced Video Codec
Format profile : [email protected]
Format settings, CABAC : Yes
Format settings, ReFrames : 4 frames
Codec ID : V_MPEG4/ISO/AVC
Duration : 1h 43mn
Bit rate : 1 400 Kbps
Width : 1 280 pixels
Height : 720 pixels
Display aspect ratio : 1.185
Frame rate : 25.000 fps
Color space : YUV
Chroma subsampling : 4:2:0
Bit depth : 8 bits
Scan type : Progressive
Bits/(Pixel*Frame) : 0.061
Stream size : 1.02 GiB (90%)
Writing library : x264 core 112 r1834 a51816a
Encoding settings : cabac=1 / ref=3 / deblock=1:0:0 / analyse=0x3:0x13 / me=hex / subme=7 / psy=1 / psy_rd=1.00:0.00 / mixed_ref=1 / me_range=16 / chroma_me=1 / trellis=1 / 8x8dct=1 / cqm=0 / deadzone=21,11 / fast_pskip=1 / chroma_qp_offset=-2 / threads=12 / sliced_threads=0 / nr=0 / decimate=1 / interlaced=0 / constrained_intra=0 / bframes=3 / b_pyramid=2 / b_adapt=1 / b_bias=0 / direct=1 / weightb=1 / open_gop=0 / weightp=2 / keyint=250 / keyint_min=25 / scenecut=40 / intra_refresh=0 / rc_lookahead=40 / rc=abr / mbtree=1 / bitrate=1400 / ratetol=1.0 / qcomp=0.60 / qpmin=10 / qpmax=51 / qpstep=4 / vbv_maxrate=1600 / vbv_bufsize=4000 / ip_ratio=1.40 / aq=1:1.00 / nal_hrd=none
Default : Yes
Forced : No

Audio
ID : 1
Format : MPEG Audio
Format version : Version 1
Format profile : Layer 3
Mode : Joint stereo
Codec ID : A_MPEG/L3
Codec ID/Hint : MP3
Duration : 1h 43mn
Bit rate mode : Constant
Bit rate : 128 Kbps
Channel(s) : 2 channels
Sampling rate : 44.1 KHz
Compression mode : Lossy
Delay relative to video : 2ms
Stream size : 94.6 MiB (8%)
Default : Yes
Forced : No


Стол заказов POWER | Отзывы | Вступление в POWER
Мои раздачи




cd22ca9b21868214539003ba2c295bc50721008aТоварищеский матч / США - Бразилия / ESPN [16.07.2012, Баскетбол, WEB-DLRip, EN] Товарищеский матч / США - Бразилия / ESPN [16.07.2012, Баскетбол, WEB-DLRip, EN] " />

Аплоадер: Админ, дата: 17-07-2012, 16:07, торрент скачан: 359 раз

Понравилась раздача? Посмотрите эти:
  • FLO / NRG [2012, Pop, Dance, MasterRip]
  • Товарищеский матч 2013 / Paris Saint-Germain - Real Madrid / JSC Sport HD 2 ...
  • Футбол. Товарищеский матч. Барселона (Испания) - Сантос (Бразилия) [Футбол, ...
  • Товарищеский матч 2013 / Бразилия - Англия / Спорт 1 HD [футбол, 02.06.2013 ...
  • ХХХ Летние Олимпийские Игры / Волейбол / Мужчины / Финал / Россия - Бразили ...
  • Товарищеский Матч 2013 / Англия - Бразилия / Спорт 1HD [06.02.2013,футбол, ...
  • Лига Чемпионов 2012-13 / 1/8 финала / Первый матч / Реал М - Манчестер Юнай ...
  • Лига Чемпионов 2011-12 / 1/2 финала / Ответный матч / Барселона (Испания) - ...
  • Товарищеский матч / США - Великобритания / ESPN [19.07.2012, Баскетбол, WEB ...
  • Товарищеский матч / Аргентина-США / ESPN [22.07.2012, Баскетбол, WEB-DL HD/ ...
  • Товарищеский матч / Испания - США [Баскетбол, 24.07.2012, WEB-DL HD/720p, M ...
  • Товарищеский матч 2012 / Касабланка - Барселона [футбол, 29.07.2012, H264, ...
  • Товарищеский матч 2012 / Швеция - Англия / ITV1 HD [Футбол, 14.11.2012, HD, ...
  • Mylene Farmer / Du Temps [2011, Pop, HDTVRip]
  • Mylene Farmer / Bleu Noir [2011, Pop, HDTVRip]
  • Английская Премьер-Лига 2012-13 / Тур 21 / Уиган - Манчестер Юнайтед [футбо ...
  • Суперкубок Испании 2010 / ответный матч+награждение, Барселона – Севилья / ...
  • Лига Чемпионов 2011-12 / 1/2 финала / Первый матч / Челси (Англия) - Барсел ...
  • Лига Чемпионов 2011-12 / 1/2 финала / Ответный матч / Реал (Испания) - Бава ...
  • Товарищеский матч 2012 / Аргентина - Бразилия / Россия 2 [Футбол, 09.06.201 ...
  • The Dream Team - NBA TV Documentary [Баскетбол,13.06.2012, HDTVRip/720p, MP ...
  • Товарищеский матч / Сборная США - Сборная Доминиканской республики / ESPN [ ...
  • ХХХ Летние Олимпийские Игры / Прыжки в воду / Мужчины / 3 Метра / Полуфинал ...
  • Чемпионат Испании 2012-13 / Тур 14 / Реал М - Атлетико М [футбол, 02.12.201 ...
  • Английская Премьер-Лига 2012-13 / Тур 15 / Рединг - Манчестер Юнайтед [футб ...
  • Информация
    Посетители, находящиеся в группе Гости, не могут оставлять комментарии к данной публикации.