вход на сайт

Имя пользователя :
Пароль :

Восстановление пароля Регистрация
NBA Playoffs 2012 / The Finals / Games 5 / Oklahoma City Thunder @ Miami Heat / ABC [Баскетбол, 21.06.2012, HDTV/720p, MKV/H.264, EN]
Рейтинг:
(голосов: 1)



[img]{THEME}/images/logopost.png[/img]



NBA Play-Off 2011-2012


The Finals / Game 5
Вид спорта: Баскетбол
Год выпуска: 21.06.2012
Язык комментариев: Английский
Участники: Oklahoma City Thunder @ Miami Heat
Описание: Предлагаю вашему вниманию 5-й матч Финала НБА сезона 2011/2012
Автор рипа/записи: peacemaker30
Доп. информация: Четыре файла,без рекламы. Торрент содержит 4 файла,для гурманов включено превью и шоу в перерыве. Эксклюзивный материал, от первой до последней минуты вся трансляция с канала АВС, получайте удовольствие!
Составы команд ▼Состав судей ▼Статистика матча ▼http://www.nba.com/games/20120621/OKCMIA/gameinfo.html
Качество: HDTV
Продолжительность ▼02:41:39
Формат: MKV
Видео кодек: H.264
Аудио кодек: AC3
Свойства видео: 1280x720, 60 fps, 4 500Kbps
Свойства аудио: 48.0 khz, 6 ch. stereo, 384Kbps CBR
Тех. описание ▼
Format : Matroska
Format version : Version 2
File size : 2.57 GiB
Duration : 1h 9mn
Overall bit rate mode : Variable
Overall bit rate : 5 281 Kbps
Encoded date : UTC 2012-06-22 11:34:41
Writing application : mkvmerge v3.2.0 (Beginnings) built on Feb 12 2010 16:46:17
Writing library : libebml v0.7.9 + libmatroska v0.8.1

Video
ID : 1
Format : AVC
Format/Info : Advanced Video Codec
Format profile : [email protected]
Format settings, CABAC : Yes
Format settings, ReFrames : 4 frames
Codec ID : V_MPEG4/ISO/AVC
Duration : 1h 9mn
Bit rate mode : Variable
Bit rate : 4 792 Kbps
Maximum bit rate : 20.0 Mbps
Width : 1 280 pixels
Height : 720 pixels
Display aspect ratio : 16:9
Frame rate : 60.000 fps
Color space : YUV
Chroma subsampling : 4:2:0
Bit depth : 8 bits
Scan type : Progressive
Bits/(Pixel*Frame) : 0.087
Stream size : 2.33 GiB (91%)
Default : Yes
Forced : No
Color primaries : BT.709-5, BT.1361, IEC 61966-2-4, SMPTE RP177
Transfer characteristics : BT.709-5, BT.1361
Matrix coefficients : BT.709-5, BT.1361, IEC 61966-2-4 709, SMPTE RP177

Audio
ID : 2
Format : AC-3
Format/Info : Audio Coding 3
Mode extension : CM (complete main)
Codec ID : A_AC3
Duration : 1h 9mn
Bit rate mode : Constant
Bit rate : 384 Kbps
Channel(s) : 6 channels
Channel positions : Front: L C R, Side: L R, LFE
Sampling rate : 48.0 KHz
Bit depth : 16 bits
Compression mode : Lossy
Stream size : 191 MiB (7%)
Default : Yes
Forced : No


Стол заказов POWER | Отзывы | Вступление в POWER
Мои раздачи


df27192fe9de7b09d151105cf0631ffbdda09e60NBA Playoffs 2012 / The Finals / Games 5 / Oklahoma City Thunder @ Miami Heat / ABC [Баскетбол, 21.06.2012, HDTV/720p, MKV/H.264, EN] NBA Playoffs 2012 / The Finals / Games 5 / Oklahoma City Thunder @ Miami Heat / ABC [Баскетбол, 21.06.2012, HDTV/720p, MKV/H.264, EN] " />

Аплоадер: Админ, дата: 23-06-2012, 13:12, торрент скачан: 359 раз

Понравилась раздача? Посмотрите эти:
  • NBA Playoffs 2013 / West / Semifinal / Game 1 / Memphis Grizzlies vs Oklaho ...
  • NBA Playoffs 2013 / West / Semifinal / Game 3 / Oklahoma City Thunder @ Mem ...
  • NBA Playoffs 2013 / West / Semifinal / Game 3 / Oklahoma City Thunder @ Mem ...
  • NBA Playoffs 2013 / West / Semifinal / Game 4 / Oklahoma City Thunder @ Mem ...
  • NBA Playoffs 2013 / West / Semifinal / Game 5 / Memphis Grizzlies @ Oklahom ...
  • NBA Playoffs 2013 / West / Semifinal / Game 5 / Memphis Grizzlies @ Oklahom ...
  • NBA Playoffs 2013 / West / 1st Round / Game 1 / Oklahoma City Thunder vs Ho ...
  • NBA Playoffs 2013 / West / 1st Round / Game 4 / Oklahoma City Thunder @ Hou ...
  • NBA 2012-2013 / RS / Miami Heat @ Oklahoma City Thunder [баскетбол, 14.02.2 ...
  • NBA 2011-2012 / RS / Oklahoma City Thunder @ Los Angeles Lakers / TNT [Баск ...
  • NBA 2011-2012 / RS / Oklahoma City Thunder @ Los Angeles Lakers / ESPN [Бас ...
  • NBA Playoffs 2012 / West / 1st Round / Game 4 / Dallas Mavericks @ Oklahoma ...
  • NBA Playoffs 2012 / East / Finals / Game 4 / Miami Heat vs Boston Celtics [ ...
  • NBA Playoffs 2012 / West / Final / Game 6 / San Antonio Spurs @ Oklahoma Ci ...
  • NBA Playoffs 2012 / The Finals / Games 1 / Oklahoma City Thunder vs Miami H ...
  • NBA Playoffs 2012 / The Finals / Games 3 / Oklahoma City Thunder @ Miami He ...
  • NBA Playoffs 2012 / The Finals / Games 4 / Oklahoma City Thunder @ Miami He ...
  • NBA Playoffs 2012 / The Finals / Games 5 / Oklahoma City Thunder @ Miami He ...
  • NBA 2012-2013 / RS / San Antonio Spurs @ Oklahoma City Thunder [баскетбол, ...
  • NBA 2012-13 / RS / Oklahoma City Thunder @ Miami Heat [баскетбол,25.12.2012 ...
  • NBA Playoffs 2012 / The Finals / Games 1 / Oklahoma City Thunder vs Miami H ...
  • NBA Playoffs 2012 / The Finals / Games 4 / Oklahoma City Thunder @ Miami He ...
  • NBA Playoffs 2012 / The Finals / Games 5 / Oklahoma City Thunder @ Miami He ...
  • Top 10 Plays of the 2012 NBA Finals [Баскетбол, 25.06.2012, HD, 720p, H.264 ...
  • Top 10 Dunks of the 2012 NBA Finals [Баскетбол, 25.06.2012, HD, 720p, H.264 ...
  • Информация
    Посетители, находящиеся в группе Гости, не могут оставлять комментарии к данной публикации.