вход на сайт

Имя пользователя :
Пароль :

Восстановление пароля Регистрация
NBA Playoffs 2013 / Highlights Playoff Edition [Баскетбол, 10.05.2013, WEB-DL HD /720p/60fps, MP4/H.264, EN]
Рейтинг:
(голосов: 1)



[img]{THEME}/images/logopost.png[/img]





NBA Playoffs 2013

Вид спорта: Баскетбол
Год выпуска: 10.05.2013
Язык комментариев: Английский
Участники: Команды участники Плей - офф
Описание: Лучшие моменты матчей за игровой день. Нарезка моментов.
Автор рипа/записи: MrDrax
Качество: WEB-DL HD
Продолжительность: 00:35:18
Формат: MP4
Видео кодек: H.264
Аудио кодек: AAC
Свойства видео: 1280x720, 59.94fps, 4400 kbps
Свойства аудио: 44,1 kHz, stereo, 192 kbps
Тех. данные ▼
E:NBAPlay-Off 2013condensed2013.05.10sas_gsw.mp4
General
Complete name : E:NBAPlay-Off 2013condensed2013.05.10sas_gsw.mp4
Format : MPEG-4
Format profile : Base Media
Codec ID : isom
File size : 574 MiB
Duration : 18mn 6s
Overall bit rate mode : Variable
Overall bit rate : 4 434 Kbps
Encoded date : UTC 2013-05-10 06:16:21
Tagged date : UTC 2013-05-10 06:16:21
Video #1
ID : 1
Format : AVC
Format/Info : Advanced Video Codec
Format profile : [email protected]
Format settings, CABAC : Yes
Format settings, ReFrames : 3 frames
Codec ID : avc1
Codec ID/Info : Advanced Video Coding
Duration : 18mn 6s
Bit rate : 4 297 Kbps
Width : 1 280 pixels
Height : 720 pixels
Display aspect ratio : 16:9
Frame rate mode : Variable
Frame rate : 59.940 fps
Minimum frame rate : 58.824 fps
Maximum frame rate : 62.500 fps
Color space : YUV
Chroma subsampling : 4:2:0
Bit depth : 8 bits
Scan type : Progressive
Bits/(Pixel*Frame) : 0.078
Stream size : 556 MiB (97%)
Title : NeuLion MP4 - Video
Encoded date : UTC 2013-05-10 06:16:22
Tagged date : UTC 2013-05-10 06:38:37
Audio #2
ID : 2
Format : AAC
Format/Info : Advanced Audio Codec
Format profile : LC
Codec ID : 40
Duration : 18mn 6s
Bit rate mode : Variable
Bit rate : 125 Kbps
Channel(s) : 2 channels
Channel positions : Front: L R
Sampling rate : 44.1 KHz
Compression mode : Lossy
Stream size : 16.2 MiB (3%)
Title : NeuLion MP4 - Audio
Encoded date : UTC 2013-05-10 06:16:22
Tagged date : UTC 2013-05-10 06:38:37


Мои раздачиРаздача Beeline


3fbe58804af8b2d9b67a9eaed843c012cab383c7NBA Playoffs 2013 / Highlights Playoff Edition [Баскетбол, 10.05.2013, WEB-DL HD /720p/60fps, MP4/H.264, EN] NBA Playoffs 2013 / Highlights Playoff Edition [Баскетбол, 10.05.2013, WEB-DL HD /720p/60fps, MP4/H.264, EN] " />

Аплоадер: Админ, дата: 11-05-2013, 15:06, торрент скачан: 359 раз

Понравилась раздача? Посмотрите эти:
  • NBA 2013-2014 / RS / Highlights [Баскетбол, 04.11.2013, WEB-DL HD/720p, MP4 ...
  • NHL 12/13 / Stanley Cup Playoffs / West / Final / Game 2 / Los Angeles King ...
  • NHL 12/13 / Stanley Cup Playoffs / Highlights Playoff Edition [Хоккей, 03.0 ...
  • NBA Playoffs 2013 / Highlights Playoff Edition [Баскетбол, 05.05.2013, WEB ...
  • NHL 12/13 / Stanley Cup Playoffs / Highlights Playoff Edition [Хоккей, 05.0 ...
  • NBA Playoffs 2013 / West / Semifinal / Game 1 / Golden State Warriors @ San ...
  • NBA Playoffs 2013 / East / Semifinal / Game 1 / Chicago Bulls @ Miami Heat ...
  • NHL 12/13 / Stanley Cup Playoffs / Highlights Playoff Edition [Хоккей, 06.0 ...
  • NBA Playoffs 2013 / Highlights Playoff Edition [Баскетбол, 06.05.2013, WEB ...
  • NBA Playoffs 2013 / Highlights Playoff Edition [Баскетбол, 07.05.2013, WEB ...
  • NHL 12/13 / Stanley Cup Playoffs / Highlights Playoff Edition [Хоккей, 07.0 ...
  • NBA Playoffs 2013 / East / Semifinal / Game 2 / Indiana Pacers vs New York ...
  • NHL 12/13 / Stanley Cup Playoffs / Highlights Playoff Edition [Хоккей, 09.0 ...
  • NBA Playoffs 2013 / Highlights Playoff Edition [Баскетбол, 08.05.2013, WEB ...
  • NBA Playoffs 2013 / East / Semifinal / Game 3 / Miami Heat @ Chicago Bulls ...
  • NBA Playoffs 2013 / West / Semifinal / Game 3 / San Antonio Spurs @ Golden ...
  • NHL 12/13 / Stanley Cup Playoffs / Highlights Playoff Edition [Хоккей, 10.0 ...
  • NBA Playoffs 2013 / Highlights Playoff Edition [Баскетбол, 11.05.2013, WEB ...
  • NBA Playoffs 2013 / East / Semifinal / Game 3 / New York Knicks @ Indiana P ...
  • NBA Playoffs 2013 / West / Semifinal / Game 4 / San Antonio Spurs @ Golden ...
  • NBA Playoffs 2013 / East / Semifinal / Game 4 / New York Knicks @ Indiana P ...
  • NBA Playoffs 2013 / Highlights Playoff Edition [Баскетбол, 15.05.2013, WEB ...
  • NBA Playoffs 2013 / East / Semifinal / Game 5 / Chicago Bulls @ Miami Heat ...
  • NHL 12/13 / Stanley Cup Playoffs / East / Semifinals / Game 1 / New York Ra ...
  • NBA Playoffs 2013 / West / Final / Game 1 / Memphis Grizzlies @ San Antonio ...
  • Информация
    Посетители, находящиеся в группе Гости, не могут оставлять комментарии к данной публикации.