вход на сайт

Имя пользователя :
Пароль :

Восстановление пароля Регистрация
NBA Playoffs 2013 / East / Semifinal / Game 2 / Indiana Pacers vs New York Knicks [Баскетбол, 07.05.2013, WEB-DL HD/720p/60fps, MKV/H.264, EN]
Рейтинг:
(голосов: 1)



[img]{THEME}/images/logopost.png[/img]







NBA Playoffs 2013



Вид спорта: Баскетбол
Год выпуска: 07.05.2013
Язык комментариев: Английский
Участники: Indiana Pacers @ New York Knicks
Описание: NBA Playoffs 2013 / Полуфинал конференцииСтатистика ▼http://www.nba.com/games/201304507/INDNYK/gameinfo.html
Автор рипа/записи: MrDrax
Продолжительность: 01:36:18
Качество: WEB-DL HD
Формат: MKV
Видео кодек: H.264
Аудио кодек: AAC
Свойства видео: 1280x720, 59,94fps, ~4400 kbps
Свойства аудио: 44.1 kHz, 2 ch, ~192 kbps
Тех. данные ▼E:NBAPlay-Off 201360 fps3_41200212_ind_nyk_2012_h_whole_1_4500.mp4
General
Complete name : E:NBAPlay-Off 201360 fps3_41200212_ind_nyk_2012_h_whole_1_4500.mp4
Format : MPEG-4
Format profile : Base Media
Codec ID : isom
File size : 2.97 GiB
Duration : 1h 36mn
Overall bit rate mode : Variable
Overall bit rate : 4 411 Kbps
Encoded date : UTC 2013-05-07 01:57:33
Tagged date : UTC 2013-05-07 01:57:33
Video #1
ID : 1
Format : AVC
Format/Info : Advanced Video Codec
Format profile : [email protected]
Format settings, CABAC : Yes
Format settings, ReFrames : 3 frames
Codec ID : avc1
Codec ID/Info : Advanced Video Coding
Duration : 1h 36mn
Bit rate : 4 275 Kbps
Width : 1 280 pixels
Height : 720 pixels
Display aspect ratio : 16:9
Frame rate mode : Variable
Frame rate : 59.940 fps
Minimum frame rate : 58.824 fps
Maximum frame rate : 62.500 fps
Color space : YUV
Chroma subsampling : 4:2:0
Bit depth : 8 bits
Scan type : Progressive
Bits/(Pixel*Frame) : 0.077
Stream size : 2.88 GiB (97%)
Title : NeuLion MP4 - Video
Encoded date : UTC 2013-05-07 01:57:35
Tagged date : UTC 2013-05-07 03:19:04
Audio #2
ID : 2
Format : AAC
Format/Info : Advanced Audio Codec
Format profile : LC
Codec ID : 40
Duration : 1h 36mn
Bit rate mode : Variable
Bit rate : 126 Kbps
Channel(s) : 2 channels
Channel positions : Front: L R
Sampling rate : 44.1 KHz
Compression mode : Lossy
Stream size : 86.5 MiB (3%)
Title : NeuLion MP4 - Audio
Encoded date : UTC 2013-05-07 01:57:35
Tagged date : UTC 2013-05-07 03:19:04





98bb1557a74118e7083a1217505b1bd7a6361c48NBA Playoffs 2013 / East / Semifinal / Game 2 / Indiana Pacers vs New York Knicks [Баскетбол, 07.05.2013, WEB-DL HD/720p/60fps, MKV/H.264, EN] NBA Playoffs 2013 / East / Semifinal / Game 2 / Indiana Pacers vs New York Knicks [Баскетбол, 07.05.2013, WEB-DL HD/720p/60fps, MKV/H.264, EN] " />

Аплоадер: Админ, дата: 8-05-2013, 23:09, торрент скачан: 359 раз

Понравилась раздача? Посмотрите эти:
  • NBA Playoffs 2013 / West / Final / Game 4 / Miami Heat @ Indiana Pacers [Ба ...
  • NBA Playoffs 2013 / West / Final / Game 1 / Indiana Pacers @ Miami Heat [Ба ...
  • NBA Playoffs 2013 / East / Semifinal / Game 1 / Indiana Pacers vs New York ...
  • NBA Playoffs 2013 / East / Semifinal / Game 1 / Indiana Pacers at New York ...
  • NBA Playoffs 2013 / East / Semifinal / Game 1 / Indiana Pacers @ New York K ...
  • NBA Playoffs 2013 / West / Semifinal / Game 1 / Golden State Warriors @ San ...
  • NBA Playoffs 2013 / East / Semifinal / Game 1 / Chicago Bulls @ Miami Heat ...
  • NBA Playoffs 2013 / East / Semifinal / Game 2 / Indiana Pacers at New York ...
  • NBA Playoffs 2013 / East / Semifinal / Game 2 / Indiana Pacers vs New York ...
  • NBA Playoffs 2013 / East / Semifinal / Game 3 / Miami Heat @ Chicago Bulls ...
  • NBA Playoffs 2013 / West / Semifinal / Game 3 / San Antonio Spurs @ Golden ...
  • NBA Playoffs 2013 / East / Semifinal / Game 3 / New York Knicks @ Indiana P ...
  • NBA Playoffs 2013 / West / Semifinal / Game 3 / Oklahoma City Thunder @ Mem ...
  • NBA Playoffs 2013 / East / Semifinal / Game 3 / New York Knicks @ Indiana P ...
  • NBA Playoffs 2013 / East / Semifinal / Game 3 / New York Knicks @ Indiana P ...
  • NBA Playoffs 2013 / West / Semifinal / Game 4 / San Antonio Spurs @ Golden ...
  • NBA Playoffs 2013 / East / Semifinal / Game 4 / New York Knicks @ Indiana P ...
  • NBA Playoffs 2013 / West / Semifinal / Game 5 / Memphis Grizzlies @ Oklahom ...
  • NBA Playoffs 2013 / East / Semifinal / Game 5 / Chicago Bulls @ Miami Heat ...
  • NBA Playoffs 2013 / East / Semifinal / Game 5 / Indiana Pacers vs New York ...
  • NBA Playoffs 2013 / West / Semifinal / Game 6 / San Antonio Spurs @ Golden ...
  • NHL 12/13 / Stanley Cup Playoffs / East / Semifinals / Game 1 / New York Ra ...
  • NBA Playoffs 2013 / East / Semifinal / Game 6 / New York Knicks @ Indiana P ...
  • NBA Playoffs 2013 / East / Semifinal / Game 6 / New York Knicks @ Indiana P ...
  • NBA 2012-2013 / RS / New York Knicks @ Indiana Pacers [баскетбол, 20.02.20 ...
  • Информация
    Посетители, находящиеся в группе Гости, не могут оставлять комментарии к данной публикации.