вход на сайт

Имя пользователя :
Пароль :

Восстановление пароля Регистрация
Все матчи Dream Team на Олимпийских играх в Барселоне [1992 г., Баскетбол, DVDRip, EN]
Рейтинг:
(голосов: 1)



[img]{THEME}/images/logopost.png[/img]



Все матчи Dream Team на Олимпийских играх
Барселона 1992

Вид спорта: Баскетбол
Год выпуска: 1992
Язык комментариев: Английский, Профессиональный (двухголосый)

Описание: Впервые в олимпийской истории на Игры были вполне официально допущены профессионалы.
И главными из них в Барселоне стали "волшебники" из НБА, из которых составили сборную США
по баскетболу. Эта великая сборная была сразу же названа "Dream Team" – "Команда-мечта".
В нее входили Майкл Джордан, Мэджик Джонсон, Ларри Бёрд, Чарльз Баркли, Карл Мэлоун,
Скотти Пиппен, Патрик Юинг, Дэвид Робинсон, Клайд Дрекслер, Джон Стоктон,
Крис Маллин, Кристиан Лэйттнер
Выступление Dream Team превратило олимпийский баскетбольный турнир в настоящее шоу
Баскетбол в исполнении "инопланетян" на фоне остальных команд выглядел настоящей
фантастикой, а статистика просто поражала воображение.

Матч 1 (групповой этап) ▼США - Ангола
Продолжительность: 1час 27 мин

Качество: DVDRip
Формат: AVI
Видео кодек: XVID
Аудио кодек: AC3
Видео 1st Half: 528x400 29.97fps 2058Kbps
Видео2nd Half: 48000Hz stereo 192Kbps
Тех. описание ▼Format : AVI
Format/Info : Audio Video Interleave
File size : 1.37 GiB
Duration : 1h 26mn
Overall bit rate : 2 258 Kbps
Writing application : VirtualDubMod 1.5.4.1 (build 2178/release)
Writing library : VirtualDubMod build 2178/release

Video
ID : 0
Format : MPEG-4 Visual
Format profile : Advanced [email protected]
Format settings, BVOP : 1
Format settings, QPel : No
Format settings, GMC : No warppoints
Format settings, Matrix : Custom
Codec ID : XVID
Codec ID/Hint : XviD
Duration : 1h 26mn
Bit rate : 2 058 Kbps
Width : 528 pixels
Height : 400 pixels
Display aspect ratio : 4:3
Frame rate : 29.970 fps
Color space : YUV
Chroma subsampling : 4:2:0
Bit depth : 8 bits
Scan type : Progressive
Compression mode : Lossy
Bits/(Pixel*Frame) : 0.325
Stream size : 1.25 GiB (91%)
Writing library : XviD 1.2.0.dev47 (UTC 2006-11-01)

Audio
ID : 1
Format : AC-3
Format/Info : Audio Coding 3
Mode extension : CM (complete main)
Codec ID : 2000
Duration : 1h 26mn
Bit rate mode : Constant
Bit rate : 192 Kbps
Channel(s) : 2 channels
Channel positions : Front: L R
Sampling rate : 48.0 KHz
Bit depth : 16 bits
Compression mode : Lossy
Stream size : 119 MiB (9%)
Alignment : Split accross interleaves
Interleave, duration : 96 ms (2.88 video frames)
Interleave, preload duration : 96 msСкриншоты ▼ Матч 2 (групповой этап) ▼США - Хорватия
Продолжительность: 1час 27 мин

Качество: DVDRip
Формат: AVI
Видео кодек: XVID
Аудио кодек: MP2
Видео 1st Half: 560x416 29.97fps 2202Kbps
Видео2nd Half: 48000Hz stereo 192Kbps
Тех. описание ▼Format : AVI
Format/Info : Audio Video Interleave
File size : 1.37 GiB
Duration : 1h 21mn
Overall bit rate : 2 403 Kbps
Writing application : VirtualDubMod 1.5.4.1 (build 2178/release)
Writing library : VirtualDubMod build 2178/release

Video
ID : 0
Format : MPEG-4 Visual
Format profile : Advanced [email protected]
Format settings, BVOP : 1
Format settings, QPel : No
Format settings, GMC : No warppoints
Format settings, Matrix : Custom
Codec ID : XVID
Codec ID/Hint : XviD
Duration : 1h 21mn
Bit rate : 2 202 Kbps
Width : 560 pixels
Height : 416 pixels
Display aspect ratio : 4:3
Frame rate : 29.970 fps
Color space : YUV
Chroma subsampling : 4:2:0
Bit depth : 8 bits
Scan type : Progressive
Compression mode : Lossy
Bits/(Pixel*Frame) : 0.315
Stream size : 1.25 GiB (92%)
Writing library : XviD 1.2.0.dev47 (UTC 2006-11-01)

Audio
ID : 1
Format : MPEG Audio
Format version : Version 1
Format profile : Layer 2
Codec ID : 50
Duration : 1h 21mn
Bit rate mode : Constant
Bit rate : 192 Kbps
Channel(s) : 2 channels
Sampling rate : 48.0 KHz
Compression mode : Lossy
Delay relative to video : 15ms
Stream size : 112 MiB (8%)
Alignment : Split accross interleaves
Interleave, duration : 67 ms (2.00 video frames)
Interleave, preload duration : 500 msСкри
c593646492eb8f1c6c8b081d6c66d289e22a1178Все матчи Dream Team на Олимпийских играх в Барселоне [1992 г., Баскетбол, DVDRip, EN] Все матчи Dream Team на Олимпийских играх в Барселоне [1992 г., Баскетбол, DVDRip, EN] " />

Аплоадер: Админ, дата: 19-07-2012, 10:30, торрент скачан: 359 раз

Понравилась раздача? Посмотрите эти:
  • Товарищеский матч 2013 / Англия - Германия / Спорт 1 [футбол, 19.11.2013, H ...
  • Вирус / Flu (Ким Сон Су, Драма, 2013) [HDTVRip, Любительский (двухголосый з ...
  • Мужество / Wymyk (Грег Зглински, драма, 2011) [DVDRip, Любительский (одного ...
  • Чемпионат Италии 2012-13 / 36-й тур / Рома — Кьево / НТВ+ [07.05.2013, SD, ...
  • Псы войны / The Dogs of War (Джон Ирвин, боевик, драма, приключения, военны ...
  • Плохая актриса / Bad Actress (Роберт Ли Кинг, комедия, 2011) [DVDRip, Профе ...
  • Захват / Carjacked (Джон Бонито, триллер, 2011)[BDRip, Профессиональный (мн ...
  • Чемпионат Европы 2012 / Группа C / 1-й тур / Ирландия — Хорватия / ТРК Футб ...
  • Чемпионат Европы 2012 / Группа D / 1-й тур / Украина - Швеция / Спорт 1 [11 ...
  • Олимпиада 2012 / Мужчины / Группа D / 1-й тур / Испания — Япония / НТВ+ [Фу ...
  • Олимпиада 2012 / Футбол / Мужчины / Группа A / 3-й тур / Великобритания - У ...
  • Неделя в NBA с В.Гомельским / НТВ+ [28.06.2011, SD, XviD, RU, SAT]
  • Чемпионат Англии 2011-2012 / Championship / 45-й Тур / Обзор Матчей / НТВ+ ...
  • Мокрый коврик / Mortal Kombat (Пол У. С. Андерсон, Пародия, 1995) [DVDRip, ...
  • Чемпионат Европы 2012 / Группа B / 1-й тур / Германия - Португалия / Спорт ...
  • NBA Finals 2012 / NBA Tonight / Рассуждения на тему предстоящего финала / V ...
  • The Dream Team - NBA TV Documentary [Баскетбол,13.06.2012, HDTVRip/720p, MP ...
  • NBA Finals 2012 / Sportscenter / В преддверии 3-ей игры / Viasat Sport [Бас ...
  • NBA Finals 2012 / Sportscenter / Четвертая игра под микроскопом / Viasat Sp ...
  • Олимпийский квалификационный турнир 2012 / Венесуэла / Мужчины / Группа C / ...
  • Супершторм в Сиэтле / Seattle Superstorm (Джейсон Бурк, фантастика, боевик ...
  • Товарищеский матч 2012 / АмаЗулу (ЮАР) - Манчестер Юнайтед (Англия) / MU TV ...
  • Чемпионат России 2012-13 / 1-й тур / Мордовия - Локомотив / НТВ+ [Футбол, 2 ...
  • Олимпиада 2012 / Женщины, Мужчины / Плавание / Квалификация / НТВ+ [30.07.2 ...
  • Товарищеский матч / Звёзды Малайзии - Манчестер Сити / ТК Футбол [Футбол, 2 ...
  • Информация
    Посетители, находящиеся в группе Гости, не могут оставлять комментарии к данной публикации.