вход на сайт

Имя пользователя :
Пароль :

Восстановление пароля Регистрация
Товарищеский матч / Сборная США - Сборная Доминиканской республики / ESPN [Баскетбол, 12.07.2012, HD, 720p, H.264, EN, HDTV]
Рейтинг:
(голосов: 1)



[img]{THEME}/images/logopost.png[/img]



Товарищеский матч
Сборная США - Сборная Доминиканской республики

Вид спорта: Баскетбол
Год выпуска: 12.07.2012
Язык комментариев: Английский
Участники: США - Доминиканская Республика
Описание: Товарищеский матч Сборная США - Сборная Доминиканской республики. Лас - Вегас
Качество: HDTV
Продолжительность: 00:30:06+00:26:21+00:29:45+00:26:54
Формат: MPEG
Видео кодек: AVC
Аудио кодек: MP3
Свойства видео: 1280x720, 25.000 fps, 1400 kbps
Свойства аудио: 44,1 kHz, stereo, 128 kbps
Тех. описание ▼
Format : MPEG-TS
File size : 356 MiB
Duration : 30mn 10s
Overall bit rate : 1 649 Kbps

Video
ID : 69 (0x45)
Menu ID : 1 (0x1)
Format : AVC
Format/Info : Advanced Video Codec
Format profile : [email protected]
Format settings, CABAC : Yes
Format settings, ReFrames : 4 frames
Codec ID : 27
Duration : 30mn 6s
Bit rate : 1 400 Kbps
Width : 1 280 pixels
Height : 720 pixels
Display aspect ratio : 1.185
Frame rate : 25.000 fps
Color space : YUV
Chroma subsampling : 4:2:0
Bit depth : 8 bits
Scan type : Progressive
Bits/(Pixel*Frame) : 0.061
Stream size : 310 MiB (87%)
Writing library : x264 core 112 r1834 a51816a
Encoding settings : cabac=1 / ref=3 / deblock=1:0:0 / analyse=0x3:0x13 / me=hex / subme=7 / psy=1 / psy_rd=1.00:0.00 / mixed_ref=1 / me_range=16 / chroma_me=1 / trellis=1 / 8x8dct=1 / cqm=0 / deadzone=21,11 / fast_pskip=1 / chroma_qp_offset=-2 / threads=12 / sliced_threads=0 / nr=0 / decimate=1 / interlaced=0 / constrained_intra=0 / bframes=3 / b_pyramid=2 / b_adapt=1 / b_bias=0 / direct=1 / weightb=1 / open_gop=0 / weightp=2 / keyint=250 / keyint_min=25 / scenecut=40 / intra_refresh=0 / rc_lookahead=40 / rc=abr / mbtree=1 / bitrate=1400 / ratetol=1.0 / qcomp=0.60 / qpmin=10 / qpmax=51 / qpstep=4 / vbv_maxrate=1600 / vbv_bufsize=4000 / ip_ratio=1.40 / aq=1:1.00 / nal_hrd=none

Audio
ID : 68 (0x44)
Menu ID : 1 (0x1)
Format : MPEG Audio
Format version : Version 1
Format profile : Layer 3
Mode : Joint stereo
Mode extension : MS Stereo
Codec ID : 3
Duration : 30mn 10s
Bit rate mode : Constant
Bit rate : 128 Kbps
Channel(s) : 2 channels
Sampling rate : 44.1 KHz
Compression mode : Lossy
Delay relative to video : -37ms
Stream size : 27.6 MiB (8%)


Стол заказов POWER | Отзывы | Вступление в POWER
Мои раздачи




c6251f2bf7b2df0defe0aaa6709055ead2ef1c4dТоварищеский матч / Сборная США - Сборная Доминиканской республики / ESPN [Баскетбол, 12.07.2012, HD, 720p, H.264, EN, HDTV] Товарищеский матч / Сборная США - Сборная Доминиканской республики / ESPN [Баскетбол, 12.07.2012, HD, 720p, H.264, EN, HDTV] " />

Аплоадер: Админ, дата: 13-07-2012, 20:30, торрент скачан: 359 раз

Понравилась раздача? Посмотрите эти:
  • UFC 162: Silva vs. Weidman - Prelims [2013, MMA, HDTVRip 720p]
  • Товарищеский матч 2013 / Сборная клубов Индонезии - Арсенал (Лондон, Англия ...
  • Товарищеский матч 2013 / Paris Saint-Germain - Real Madrid / JSC Sport HD 2 ...
  • Товарищеский матч 2013 / Сборная клубов Таиланда - Барселона (Испания) / JS ...
  • Чемпионат Англии 2012-2013 / 33-й тур / Челси - Тоттенхэм / Спорт 1 [Футбол ...
  • UFC The Ultimate 100 Knockouts - PPV [MMA,2013, HDTVRip 720p]
  • КВН-2013. Высшая Лига. Третья 1/4 финала (Тв-шоу, юмор, 19.05.2013) [HDTVRi ...
  • Товарищеский Матч 2013 / Англия - Бразилия / Спорт 1HD [06.02.2013,футбол, ...
  • Лига Чемпионов 2012-13 / 1/8 финала / Первый матч / Реал М - Манчестер Юнай ...
  • Лига Чемпионов 2011-12 / 1/2 финала / Ответный матч / Барселона (Испания) - ...
  • Товарищеский матч / США - Бразилия / ESPN [16.07.2012, Баскетбол, WEB-DLRip ...
  • Товарищеский матч / США - Великобритания / ESPN [19.07.2012, Баскетбол, WEB ...
  • Товарищеский матч / Аргентина-США / ESPN [22.07.2012, Баскетбол, WEB-DL HD/ ...
  • Товарищеский матч / Испания - США [Баскетбол, 24.07.2012, WEB-DL HD/720p, M ...
  • Английская Премьер-Лига 2012-13 / Тур 21 / Уиган - Манчестер Юнайтед [футбо ...
  • Суперкубок Испании 2010 / ответный матч+награждение, Барселона – Севилья / ...
  • NBA 2011-2012 / RS / Miami Heat @ Chicago Bulls / TNT [Баскетбол, 12.04.201 ...
  • Лига Чемпионов 2011-12 / 1/2 финала / Первый матч / Челси (Англия) - Барсел ...
  • Лига Чемпионов 2011-12 / 1/2 финала / Ответный матч / Реал (Испания) - Бава ...
  • Madonna / Girl Gone Wild [2012, Pop, HDTV]
  • The Dream Team - NBA TV Documentary [Баскетбол,13.06.2012, HDTVRip/720p, MP ...
  • Товарищеский матч 2012 / Звезды мирового футбола в Майами / "Друзья Месси" ...
  • ХХХ Летние Олимпийские Игры / Прыжки в воду / Мужчины / 3 Метра / Полуфинал ...
  • Чемпионат Испании 2012-13 / Тур 14 / Реал М - Атлетико М [футбол, 02.12.201 ...
  • Английская Премьер-Лига 2012-13 / Тур 15 / Рединг - Манчестер Юнайтед [футб ...
  • Информация
    Посетители, находящиеся в группе Гости, не могут оставлять комментарии к данной публикации.