вход на сайт

Имя пользователя :
Пароль :

Восстановление пароля Регистрация
Олимпийский квалификационный турнир 2012 / Венесуэла / Мужчины / Группа C / 2 тур / Доминиканская Республика - Россия / Спорт 1 [Баскетбол, 04.07.2012, SD, XviD, RU, SATRip]
Рейтинг:
(голосов: 1)



[img]{THEME}/images/logopost.png[/img]



Олимпийский квалификационный турнир 2012
Доминиканская Республика - Россия
Вид спорта: Баскетбол
Год выпуска: 04.07.2012
Язык комментариев: Русский (Роман Скворцов)
Участники: Доминиканская Республика - Россия
Описание: Олимпийский квалификационный турнир 2012
Автор рипа/записи: vaddon30
Составы команд ▼Результат матча ▼
Качество: SATRip
Продолжительность ▼01:33:46
Формат: AVI
Видео кодек: XviD
Аудио кодек: MP3
Свойства видео: 704x400, 25.0fps, 1800kbps
Свойства аудио: 48 kHz, MPEG Layer 3, 2 ch, ~128.00 kbps avg
Тех. описание ▼
Format : AVI
Format/Info : Audio Video Interleave
File size : 1.27 GiB
Duration : 1h 33mn
Overall bit rate : 1 936 Kbps
Writing application : VirtualDubModRus 1.5.10.2 (build 2542/release)
Writing library : VirtualDub build 30009/release

Video
ID : 0
Format : MPEG-4 Visual
Format profile : Advanced [email protected]
Format settings, BVOP : 1
Format settings, QPel : No
Format settings, GMC : No warppoints
Format settings, Matrix : Default (H.263)
Muxing mode : Packed bitstream
Codec ID : XVID
Codec ID/Hint : XviD
Duration : 1h 33mn
Bit rate : 1 798 Kbps
Width : 704 pixels
Height : 400 pixels
Display aspect ratio : 16:9
Frame rate : 25.000 fps
Color space : YUV
Chroma subsampling : 4:2:0
Bit depth : 8 bits
Scan type : Progressive
Compression mode : Lossy
Bits/(Pixel*Frame) : 0.255
Stream size : 1.18 GiB (93%)
Writing library : XviD 64

Audio
ID : 1
Format : MPEG Audio
Format version : Version 1
Format profile : Layer 3
Mode : Joint stereo
Mode extension : MS Stereo
Codec ID : 55
Codec ID/Hint : MP3
Duration : 1h 33mn
Bit rate mode : Constant
Bit rate : 128 Kbps
Channel(s) : 2 channels
Sampling rate : 48.0 KHz
Compression mode : Lossy
Stream size : 85.8 MiB (7%)
Alignment : Split accross interleaves
Interleave, duration : 40 ms (1.00 video frame)
Interleave, preload duration : 500 ms


Стол заказов POWER | Отзывы | Вступление в POWER
Мои раздачи


81b8612f9ba0967151d5a71d2023194127328a3aОлимпийский квалификационный турнир 2012 / Венесуэла / Мужчины / Группа C / 2 тур / Доминиканская Республика - Россия / Спорт 1 [Баскетбол, 04.07.2012, SD, XviD, RU, SATRip] Олимпийский квалификационный турнир 2012 / Венесуэла / Мужчины / Группа C / 2 тур / Доминиканская Республика - Россия / Спорт 1 [Баскетбол, 04.07.2012, SD, XviD, RU, SATRip] " />

Аплоадер: Админ, дата: 5-07-2012, 10:51, торрент скачан: 359 раз

Понравилась раздача? Посмотрите эти:
  • Чемпионат Италии 2012-13 / 36-й тур / Рома — Кьево / НТВ+ [07.05.2013, SD, ...
  • Молодежный чемпионат мира 2012 (U-20). Четвертьфинал: Россия - Чехия [02.01 ...
  • Чемпионат Германии 2011-12 / 28-й тур / Боруссия Д - Штутгарт / НТВ+ [Футбо ...
  • Чемпионат Испании 2011-12 / 36-й тур / Реал Мадрид - Севилья / НТВ+ [Футбол ...
  • Чемпионат Европы 2012 / Группа C / 1-й тур / Ирландия — Хорватия / ТРК Футб ...
  • Чемпионат Европы 2012 / Группа D / 1-й тур / Украина - Швеция / Спорт 1 [11 ...
  • Олимпиада 2012 / Мужчины / Группа D / 1-й тур / Испания — Япония / НТВ+ [Фу ...
  • Олимпиада 2012 / Футбол / Мужчины / Группа A / 3-й тур / Великобритания - У ...
  • Чемпионат Мира 2014 | Отборочный турнир | Европа | Группа H | Англия - Укра ...
  • Чемпионат Мира 2014 | Отборочный турнир | Европа | Группа F | Португалия - ...
  • Чемпионат Англии 2011-12 / 31 тур / Ньюкасл - Ливерпуль / Спорт 1 [Футбол, ...
  • Чемпионат Англии 2011-12 / 32-й тур / Обзор тура / Спорт 1 [Футбол, 10.04.2 ...
  • Чемпионат Англии 2011-12 / 35 тур / Манчестер Юнайтед - Эвертон / Спорт 1 [ ...
  • Чемпионат Англии 2011-2012 / Championship / 45-й Тур / Обзор Матчей / НТВ+ ...
  • Чемпионат Европы 2012 / Группа B / 1-й тур / Германия - Португалия / Спорт ...
  • NBA Finals 2012 / NBA Tonight / Рассуждения на тему предстоящего финала / V ...
  • NBA Finals 2012 / Sportscenter / В преддверии 3-ей игры / Viasat Sport [Бас ...
  • Бой за титул чемпиона мира в первом полусреднем весе по версии IBO / Хабиб ...
  • NBA Finals 2012 / Sportscenter / Четвертая игра под микроскопом / Viasat Sp ...
  • Nonito Donaire vs. Jeffrey Mathebula / Нонито Донэйр - Джефри Матебула + Ан ...
  • Чемпионат России 2012-13 / 1-й тур / Мордовия - Локомотив / НТВ+ [Футбол, 2 ...
  • Чемпионат России 2012-2013 / 1-й тур / Алания (Владикавказ) - Спартак (Моск ...
  • Олимпиада 2012 / Женщины, Мужчины / Плавание / Квалификация / НТВ+ [30.07.2 ...
  • Товарищеский матч / Звёзды Малайзии - Манчестер Сити / ТК Футбол [Футбол, 2 ...
  • Чемпионат Мира 2014 | Отборочный турнир | Группа D | 1-й тур | Голландия- Т ...
  • Информация
    Посетители, находящиеся в группе Гости, не могут оставлять комментарии к данной публикации.