вход на сайт

Имя пользователя :
Пароль :

Восстановление пароля Регистрация
Top 10 Dunks of the 2012 NBA Finals [Баскетбол, 25.06.2012, HD, 720p, H.264, EN, HDTV]
Рейтинг:
(голосов: 1)



[img]{THEME}/images/logopost.png[/img]



Top 10 Dunks
Of The 2012 NBA Finals

Вид спорта: Баскетбол
Год выпуска: 25.06.2012
Язык комментариев: Английский
Участники: Miami Heat @ Oklahoma City Thunder
Описание: Top 10 Dunks Of The 2012 NBA Finals
Качество: HDTV
Продолжительность: 00:02:42
Формат: MP4
Видео кодек: H.264
Аудио кодек: AAC
Свойства видео: 1280x720, 29,97 fps, 3000 kbps
Свойства аудио: 44,1 kHz, stereo, 109 kbps
Тех. описание ▼
Format : MPEG-4
Format profile : Base Media / Version 2
Codec ID : mp42
File size : 61.1 MiB
Duration : 2mn 41s
Overall bit rate mode : Variable
Overall bit rate : 3 166 Kbps
Encoded date : UTC 2012-06-21 22:39:11
Tagged date : UTC 2012-06-21 22:39:11
gsst : 0
gstd : 162121
gssd : BADC201A2MH1340625196979638
gshh : o-o.preferred.prg01s02.v14.nonxt7.c.youtube.com

Video
ID : 1
Format : AVC
Format/Info : Advanced Video Codec
Format profile : [email protected]
Format settings, CABAC : Yes
Format settings, ReFrames : 1 frame
Codec ID : avc1
Codec ID/Info : Advanced Video Coding
Duration : 2mn 41s
Bit rate : 3 012 Kbps
Maximum bit rate : 4 481 Kbps
Width : 1 280 pixels
Height : 720 pixels
Display aspect ratio : 16:9
Frame rate mode : Constant
Frame rate : 29.970 fps
Color space : YUV
Chroma subsampling : 4:2:0
Bit depth : 8 bits
Scan type : Progressive
Bits/(Pixel*Frame) : 0.109
Stream size : 58.2 MiB (95%)
Tagged date : UTC 2012-06-21 22:39:11

Audio
ID : 2
Format : AAC
Format/Info : Advanced Audio Codec
Format profile : LC
Codec ID : 40
Duration : 2mn 41s
Bit rate mode : Variable
Bit rate : 151 Kbps
Maximum bit rate : 172 Kbps
Channel(s) : 2 channels
Channel positions : Front: L R
Sampling rate : 44.1 KHz
Compression mode : Lossy
Stream size : 2.92 MiB (5%)
Title : IsoMedia File Produced by Google, 5-11-2011
Encoded date : UTC 2012-06-21 22:39:11
Tagged date : UTC 2012-06-21 22:39:11


Стол заказов POWER | Отзывы | Вступление в POWER
Мои раздачи




2dce03f95811ec2801e1721eb8c108e9bf291276Top 10 Dunks of the 2012 NBA Finals [Баскетбол, 25.06.2012, HD, 720p, H.264, EN, HDTV] Top 10 Dunks of the 2012 NBA Finals [Баскетбол, 25.06.2012, HD, 720p, H.264, EN, HDTV] " />

Аплоадер: Админ, дата: 26-06-2012, 13:05, торрент скачан: 359 раз

Понравилась раздача? Посмотрите эти:
  • NBA 2013-2014 / RS / Highlights [Баскетбол, 04.11.2013, WEB-DL HD/720p, MP4 ...
  • NBA Playoffs 2013 / Highlights Playoff Edition [Баскетбол, 07.05.2013, WEB ...
  • WWE Extreme Rules + Preshow [19.05.2013, Рестлинг, WEB-DL-HDTV/720p, MP4-MK ...
  • NBA 2012-2013 / RS / Minnesota Timberwolves @ Portland Trail Blazers [Баск ...
  • NBA Playoffs 2012 / The Finals / Games 1 / Oklahoma City Thunder vs Miami H ...
  • NBA Playoffs 2012 / The Finals / Games 3 / Oklahoma City Thunder @ Miami He ...
  • NBA Playoffs 2012 / The Finals / Games 4 / Oklahoma City Thunder @ Miami He ...
  • NBA Playoffs 2012 / The Finals / Games 5 / Oklahoma City Thunder @ Miami He ...
  • NBA Playoffs 2012 / The Finals / Games 5 / Oklahoma City Thunder @ Miami He ...
  • NBA 2012-2013 / RS / 30.10.2012 / Boston Celtics @ Miami Heat [Баскетбол, W ...
  • NBA 2012-2013 / RS / 01.11.2012 / Oklahoma City Thunder @ San Antonio Spurs ...
  • NBA 2012-2013 / RS / 05.11.2012 / Phoenix Suns @ Miami Heat (Русская версия ...
  • Prodigy (of Mobb Deep) / Pretty Thug [2012, Rap, WEBRip]
  • NBA 2012-2013 / RS /Miami Heat @ Milwaukee Bucks [баскетбол, 29.12.2012,WEB ...
  • Madonna / Girl Gone Wild [2012, Pop, HDTV]
  • NBA Finals 2012 / NBA Tonight / Рассуждения на тему предстоящего финала / V ...
  • NBA Playoffs 2012 / The Finals / Games 1 / Oklahoma City Thunder vs Miami H ...
  • NBA Finals 2012 / Sportscenter / В преддверии 3-ей игры / Viasat Sport [Бас ...
  • NBA Playoffs 2012 / The Finals / Games 4 / Oklahoma City Thunder @ Miami He ...
  • NBA Finals 2012 / Sportscenter / Четвертая игра под микроскопом / Viasat Sp ...
  • NBA Playoffs 2012 / The Finals / Games 5 / Oklahoma City Thunder @ Miami He ...
  • LeBron James 2012 Finals MVP [Баскетбол, 24.06.2012, HD, 720p, H.264, EN, H ...
  • Top 10 Plays of the 2012 NBA Finals [Баскетбол, 25.06.2012, HD, 720p, H.264 ...
  • Чемпионат Европы 2012 / TOP 10 Goals & Best Moments [Футбол, 04.07.2012, HD ...
  • NBA 2012-2013 / RS / Miami Heat @ Houston Rockets [баскетбол, 12.11.2012 ,W ...
  • Информация
    Посетители, находящиеся в группе Гости, не могут оставлять комментарии к данной публикации.