вход на сайт

Имя пользователя :
Пароль :

Восстановление пароля Регистрация
Top 10 Plays of the 2012 NBA Finals [Баскетбол, 25.06.2012, HD, 720p, H.264, EN, HDTV]
Рейтинг:
(голосов: 1)



[img]{THEME}/images/logopost.png[/img]



NBA Play-Off 2011-2012
Top 5 Game 2

Вид спорта: Баскетбол
Год выпуска: 25.06.2012
Язык комментариев: Английский
Участники: Miami Heat @ Oklahoma City Thunder
Описание: Top 5 Game 2 NBA Play-Off 2011/2012
Качество: HDTV
Продолжительность: 00:02:00
Формат: MP4
Видео кодек: H.264
Аудио кодек: AAC
Свойства видео: 1280x720, 29,97 fps, 3000 kbps
Свойства аудио: 44,1 kHz, stereo, 109 kbps
Тех. описание ▼
Format : MPEG-4
Format profile : Base Media / Version 2
Codec ID : mp42
File size : 50.1 MiB
Duration : 2mn 12s
Overall bit rate mode : Variable
Overall bit rate : 3 179 Kbps
Encoded date : UTC 2012-06-22 02:25:54
Tagged date : UTC 2012-06-22 02:25:54
gsst : 0
gstd : 132445
gssd : B2E1CF70BHH1340625122129265
gshh : o-o.preferred.plix-waw6.v8.lscache6.c.youtube.com

Video
ID : 1
Format : AVC
Format/Info : Advanced Video Codec
Format profile : [email protected]
Format settings, CABAC : Yes
Format settings, ReFrames : 1 frame
Codec ID : avc1
Codec ID/Info : Advanced Video Coding
Duration : 2mn 12s
Bit rate : 3 025 Kbps
Maximum bit rate : 4 443 Kbps
Width : 1 280 pixels
Height : 720 pixels
Display aspect ratio : 16:9
Frame rate mode : Constant
Frame rate : 29.970 fps
Color space : YUV
Chroma subsampling : 4:2:0
Bit depth : 8 bits
Scan type : Progressive
Bits/(Pixel*Frame) : 0.110
Stream size : 47.7 MiB (95%)
Tagged date : UTC 2012-06-22 02:25:54

Audio
ID : 2
Format : AAC
Format/Info : Advanced Audio Codec
Format profile : LC
Codec ID : 40
Duration : 2mn 12s
Bit rate mode : Variable
Bit rate : 151 Kbps
Maximum bit rate : 171 Kbps
Channel(s) : 2 channels
Channel positions : Front: L R
Sampling rate : 44.1 KHz
Compression mode : Lossy
Stream size : 2.38 MiB (5%)
Title : IsoMedia File Produced by Google, 5-11-2011
Encoded date : UTC 2012-06-22 02:25:54
Tagged date : UTC 2012-06-22 02:25:54


Стол заказов POWER | Отзывы | Вступление в POWER
Мои раздачи




2c507429d31958302939f52aa32db94826b98689Top 10 Plays of the 2012 NBA Finals [Баскетбол, 25.06.2012, HD, 720p, H.264, EN, HDTV] Top 10 Plays of the 2012 NBA Finals [Баскетбол, 25.06.2012, HD, 720p, H.264, EN, HDTV] " />

Аплоадер: Админ, дата: 26-06-2012, 12:59, торрент скачан: 359 раз

Понравилась раздача? Посмотрите эти:
  • NBA 2013-2014 / RS / Highlights [Баскетбол, 04.11.2013, WEB-DL HD/720p, MP4 ...
  • NBA Playoffs 2013 / Highlights Playoff Edition [Баскетбол, 05.05.2013, WEB ...
  • NBA Playoffs 2013 / Highlights Playoff Edition [Баскетбол, 06.05.2013, WEB ...
  • NBA Playoffs 2013 / Highlights Playoff Edition [Баскетбол, 07.05.2013, WEB ...
  • WWE Extreme Rules + Preshow [19.05.2013, Рестлинг, WEB-DL-HDTV/720p, MP4-MK ...
  • NBA 2012-2013 / RS / Minnesota Timberwolves @ Portland Trail Blazers [Баск ...
  • NBA Playoffs 2012 / East / Finals / Game 4 / Miami Heat vs Boston Celtics [ ...
  • NBA Playoffs 2012 / The Finals / Games 1 / Oklahoma City Thunder vs Miami H ...
  • NBA Playoffs 2012 / The Finals / Games 3 / Oklahoma City Thunder @ Miami He ...
  • NBA Playoffs 2012 / The Finals / Games 4 / Oklahoma City Thunder @ Miami He ...
  • NBA Playoffs 2012 / The Finals / Games 5 / Oklahoma City Thunder @ Miami He ...
  • NBA Playoffs 2012 / The Finals / Games 5 / Oklahoma City Thunder @ Miami He ...
  • NBA 2012-2013 / RS / 05.11.2012 / Phoenix Suns @ Miami Heat (Русская версия ...
  • Prodigy (of Mobb Deep) / Pretty Thug [2012, Rap, WEBRip]
  • NBA 2012-2013 / RS /Miami Heat @ Milwaukee Bucks [баскетбол, 29.12.2012,WEB ...
  • Madonna / Girl Gone Wild [2012, Pop, HDTV]
  • NBA Finals 2012 / NBA Tonight / Рассуждения на тему предстоящего финала / V ...
  • NBA Playoffs 2012 / The Finals / Games 1 / Oklahoma City Thunder vs Miami H ...
  • NBA Finals 2012 / Sportscenter / В преддверии 3-ей игры / Viasat Sport [Бас ...
  • NBA Playoffs 2012 / The Finals / Games 4 / Oklahoma City Thunder @ Miami He ...
  • NBA Finals 2012 / Sportscenter / Четвертая игра под микроскопом / Viasat Sp ...
  • NBA Playoffs 2012 / The Finals / Games 5 / Oklahoma City Thunder @ Miami He ...
  • LeBron James 2012 Finals MVP [Баскетбол, 24.06.2012, HD, 720p, H.264, EN, H ...
  • Top 10 Dunks of the 2012 NBA Finals [Баскетбол, 25.06.2012, HD, 720p, H.264 ...
  • Чемпионат Европы 2012 / TOP 10 Goals & Best Moments [Футбол, 04.07.2012, HD ...
  • Информация
    Посетители, находящиеся в группе Гости, не могут оставлять комментарии к данной публикации.