вход на сайт

Имя пользователя :
Пароль :

Восстановление пароля Регистрация
NBA Playoffs 2012 / The Finals / Games 4 / Oklahoma City Thunder @ Miami Heat / Viasat Sport [Баскетбол, 19.06.2012, SD, XviD, RU, SAT]
Рейтинг:
(голосов: 1)



[img]{THEME}/images/logopost.png[/img]



NBA Play-Off 2011-2012


The Finals / Game 4
Вид спорта: Баскетбол
Год выпуска: 19.06.2012
Язык комментариев: Русский (И.Знаменский и Д.Захаров)
Участники: Oklahoma City Thunder @ Miami Heat
Описание: Предлагаю вашему вниманию 4-й матч Финала НБА сезона 2011/2012
Автор рипа/записи: baggo17879
Составы команд ▼Состав судей ▼Статистика матча ▼http://www.nba.com/games/20120619/OKCMIA/gameinfo.html
Качество: SATRip
Продолжительность ▼02:20:20
Формат: AVI
Видео кодек: XviD
Аудио кодек: MP3
Свойства видео: 704x400 (1.76:1), 25 fps, XviD build 50 ~1888 kbps avg, 0.29 bit/pixel
Свойства аудио: 48 kHz, MPEG Layer 3, 2 ch, ~128.00 kbps avg
Тех. описание ▼
Format : AVI
Format/Info : Audio Video Interleave
Format profile : OpenDML
File size : 1.98 GiB
Duration : 2h 20mn
Overall bit rate : 2 024 Kbps
Writing library : MPlayer

Video
ID : 0
Format : MPEG-4 Visual
Format profile : Advanced [email protected]
Format settings, BVOP : 1
Format settings, QPel : No
Format settings, GMC : No warppoints
Format settings, Matrix : Default (MPEG)
Codec ID : DX50
Codec ID/Hint : DivX 5
Duration : 2h 20mn
Bit rate : 1 890 Kbps
Width : 704 pixels
Height : 400 pixels
Display aspect ratio : 16:9
Frame rate : 25.000 fps
Color space : YUV
Chroma subsampling : 4:2:0
Bit depth : 8 bits
Scan type : Progressive
Compression mode : Lossy
Bits/(Pixel*Frame) : 0.269
Stream size : 1.85 GiB (93%)
Writing library : XviD 1.2.1 (UTC 2008-12-04)

Audio
ID : 1
Format : MPEG Audio
Format version : Version 1
Format profile : Layer 3
Codec ID : 55
Codec ID/Hint : MP3
Duration : 2h 20mn
Bit rate mode : Constant
Bit rate : 128 Kbps
Channel(s) : 2 channels
Sampling rate : 48.0 KHz
Compression mode : Lossy
Stream size : 128 MiB (6%)
Alignment : Aligned on interleaves
Interleave, duration : 480 ms (12.00 video frames)
Interleave, preload duration : 960 ms


Стол заказов POWER | Отзывы | Вступление в POWER
Мои раздачи


5474d80798b31b410d29c0790e2d437dcc9c1695NBA Playoffs 2012 / The Finals / Games 4 / Oklahoma City Thunder @ Miami Heat / Viasat Sport [Баскетбол, 19.06.2012, SD, XviD, RU, SAT] NBA Playoffs 2012 / The Finals / Games 4 / Oklahoma City Thunder @ Miami Heat / Viasat Sport [Баскетбол, 19.06.2012, SD, XviD, RU, SAT] " />

Аплоадер: Админ, дата: 20-06-2012, 20:28, торрент скачан: 359 раз

Понравилась раздача? Посмотрите эти:
  • NBA Playoffs 2013 / West / Semifinal / Game 2 / Memphis Grizzlies @ Oklahom ...
  • NBA Playoffs 2013 / West / Semifinal / Game 3 / Oklahoma City Thunder @ Mem ...
  • NBA Playoffs 2013 / West / 1st Round / Game 2 / Houston Rockets @ Oklahoma ...
  • NBA 2012-13 / RS / Oklahoma City Thunder @ Utah Jazz [баскетбол,09.04.2013, ...
  • NBA 2012-13 / RS / San Antonio Spurs @ Oklahoma City Thunder [баскетбол,04. ...
  • NBA 2012-13 / RS / Los Angeles Lakers @ Oklahoma City Thunder [баскетбол,05 ...
  • NBA 2012-13 / RS / Dallas Mavericks @ Oklahoma City Thunder [баскетбол,04.0 ...
  • NBA 2012-2013 / RS / Miami Heat @ Oklahoma City Thunder [баскетбол, 14.02.2 ...
  • NBA Playoffs 2012 / West / Final / Game 2 / Oklahoma City Thunder @ San Ant ...
  • NBA Playoffs 2012 / East / Finals / Game 4 / Miami Heat vs Boston Celtics [ ...
  • NBA Playoffs 2012 / West / Final / Game 6 / San Antonio Spurs @ Oklahoma Ci ...
  • NBA Playoffs 2012 / The Finals / Games 1 / Oklahoma City Thunder vs Miami H ...
  • NBA Playoffs 2012 / The Finals / Games 3 / Oklahoma City Thunder @ Miami He ...
  • NBA Playoffs 2012 / The Finals / Games 4 / Oklahoma City Thunder @ Miami He ...
  • NBA Playoffs 2012 / The Finals / Games 5 / Oklahoma City Thunder @ Miami He ...
  • NBA Playoffs 2012 / The Finals / Games 5 / Oklahoma City Thunder @ Miami He ...
  • NBA 2012-13 / RS / Oklahoma City Thunder @ Los Angeles Lakers [баскетбол,11 ...
  • NBA 2012-13 / RS / Denver Nuggets @ Oklahoma City Thunder [баскетбол,16.01. ...
  • NBA 2012-13 / RS / Oklahoma City Thunder @ Minnesota Timberwolves [баскетбо ...
  • NBA 2012-13 / RS / Oklahoma City Thunder @ Miami Heat [баскетбол,25.12.2012 ...
  • NBA Finals 2012 / NBA Tonight / Рассуждения на тему предстоящего финала / V ...
  • NBA Playoffs 2012 / The Finals / Games 1 / Oklahoma City Thunder vs Miami H ...
  • NBA Finals 2012 / Sportscenter / В преддверии 3-ей игры / Viasat Sport [Бас ...
  • NBA Finals 2012 / Sportscenter / Четвертая игра под микроскопом / Viasat Sp ...
  • NBA Playoffs 2012 / The Finals / Games 5 / Oklahoma City Thunder @ Miami He ...
  • Информация
    Посетители, находящиеся в группе Гости, не могут оставлять комментарии к данной публикации.