вход на сайт

Имя пользователя :
Пароль :

Восстановление пароля Регистрация
NBA Finals 2012 / Sportscenter / В преддверии 3-ей игры / Viasat Sport [Баскетбол, 17.06.2012, SD, XviD, RU, IPTV]
Рейтинг:
(голосов: 1)



[img]{THEME}/images/logopost.png[/img]



NBA Tonight
Sportscenter
Вид спорта: Баскетбол
Год выпуска: 17.06.2012
Язык комментариев: Русский
Участники: Miami Heat @ Oklahoma City Thunder
Описание: В преддверии 3-ей игры финала НБА сезона 2011/2012
Качество: IPTVRip
Продолжительность ▼00:10:44
Формат: AVI
Видео кодек: XviD
Аудио кодек: MP3
Свойства видео: 704 x 400, 25 fps, 1828 kbps
Свойства аудио: 48 kHz, 2 ch, 128 kbps
Тех. описание ▼
Format : AVI
Format/Info : Audio Video Interleave
File size : 151 MiB
Duration : 10mn 43s
Overall bit rate : 1 966 Kbps
Writing library : VirtualDub build 34802/release

Video
ID : 0
Format : MPEG-4 Visual
Format profile : [email protected]
Format settings, BVOP : No
Format settings, QPel : No
Format settings, GMC : No warppoints
Format settings, Matrix : Default (H.263)
Codec ID : XVID
Codec ID/Hint : XviD
Duration : 10mn 43s
Bit rate : 1 828 Kbps
Width : 704 pixels
Height : 400 pixels
Display aspect ratio : 16:9
Frame rate : 25.000 fps
Color space : YUV
Chroma subsampling : 4:2:0
Bit depth : 8 bits
Scan type : Progressive
Compression mode : Lossy
Bits/(Pixel*Frame) : 0.260
Stream size : 140 MiB (93%)
Writing library : XviD 63

Audio
ID : 1
Format : MPEG Audio
Format version : Version 1
Format profile : Layer 3
Mode : Joint stereo
Mode extension : MS Stereo
Codec ID : 55
Codec ID/Hint : MP3
Duration : 10mn 43s
Bit rate mode : Constant
Bit rate : 128 Kbps
Channel(s) : 2 channels
Sampling rate : 48.0 KHz
Compression mode : Lossy
Stream size : 9.82 MiB (7%)
Alignment : Split accross interleaves
Interleave, duration : 40 ms (1.00 video frame)
Interleave, preload duration : 500 ms


Стол заказов POWER | Отзывы | Вступление в POWER
Мои раздачи


26374e6a6aaafedee13af874b98fc22bfc4fdb01NBA Finals 2012 / Sportscenter / В преддверии 3-ей игры / Viasat Sport [Баскетбол, 17.06.2012, SD, XviD, RU, IPTV] NBA Finals 2012 / Sportscenter / В преддверии 3-ей игры / Viasat Sport [Баскетбол, 17.06.2012, SD, XviD, RU, IPTV] " />

Аплоадер: Админ, дата: 17-06-2012, 18:07, торрент скачан: 359 раз

Понравилась раздача? Посмотрите эти:
  • Чемпионат Германии 2012-2013 / 32-й тур / Обзор матчей / Футбол + (UA) [06. ...
  • Чемпионат Европы 2012 / Группа C / 1-й тур / Ирландия — Хорватия / ТРК Футб ...
  • NBA Playoffs 2012 / The Finals / Games 1 / Oklahoma City Thunder vs Miami H ...
  • NBA Playoffs 2012 / The Finals / Games 3 / Oklahoma City Thunder @ Miami He ...
  • NBA Playoffs 2012 / The Finals / Games 4 / Oklahoma City Thunder @ Miami He ...
  • NBA Playoffs 2012 / The Finals / Games 5 / Oklahoma City Thunder @ Miami He ...
  • NBA Playoffs 2012 / The Finals / Games 5 / Oklahoma City Thunder @ Miami He ...
  • Олимпиада 2012 / Мужчины / Группа D / 1-й тур / Испания — Япония / НТВ+ [Фу ...
  • Олимпиада 2012 / Футбол / Мужчины / Группа A / 3-й тур / Великобритания - У ...
  • NBA 2012-2013 / NBA Tonight / 01.11.2012 / Viasat Sport [баскетбол, 01.11.2 ...
  • Чемпионат Англии 2011-2012 / Championship / 45-й Тур / Обзор Матчей / НТВ+ ...
  • NBA Finals 2012 / NBA Tonight / Рассуждения на тему предстоящего финала / V ...
  • NBA Playoffs 2012 / The Finals / Games 1 / Oklahoma City Thunder vs Miami H ...
  • NBA Playoffs 2012 / The Finals / Games 4 / Oklahoma City Thunder @ Miami He ...
  • NBA Finals 2012 / Sportscenter / Четвертая игра под микроскопом / Viasat Sp ...
  • NBA Playoffs 2012 / The Finals / Games 5 / Oklahoma City Thunder @ Miami He ...
  • LeBron James 2012 Finals MVP [Баскетбол, 24.06.2012, HD, 720p, H.264, EN, H ...
  • Top 10 Plays of the 2012 NBA Finals [Баскетбол, 25.06.2012, HD, 720p, H.264 ...
  • Top 10 Dunks of the 2012 NBA Finals [Баскетбол, 25.06.2012, HD, 720p, H.264 ...
  • Олимпийский квалификационный турнир 2012 / Венесуэла / Мужчины / Группа C / ...
  • Чемпионат России 2012-13 / 1-й тур / Мордовия - Локомотив / НТВ+ [Футбол, 2 ...
  • Олимпиада 2012 / Женщины, Мужчины / Плавание / Квалификация / НТВ+ [30.07.2 ...
  • ХХХ Летние Олимпийские Игры / Лёгкая атлетика / День 8 / Вечер [10.08.2012, ...
  • Чемпионат Испании 2012-13 | 5-й тур | Обзор матчей | НТВ+ [Футбол, 24.09.20 ...
  • NBA 2012-2013 / NBA Tonight / 03.11.2012 / Viasat Sport [баскетбол, 01.11.2 ...
  • Информация
    Посетители, находящиеся в группе Гости, не могут оставлять комментарии к данной публикации.