вход на сайт

Имя пользователя :
Пароль :

Восстановление пароля Регистрация
The Dream Team - NBA TV Documentary [Баскетбол,13.06.2012, HDTVRip/720p, MP4, EN]
Рейтинг:
(голосов: 1)



[img]{THEME}/images/logopost.png[/img]



The Dream Team - NBA TV Documentary

Вид спорта: Баскетбол
Год выпуска: 13.06.2012
Язык комментариев: Английский
Участники: Звезды НБА
Описание: Документальный фильм о великой Команде Мечты
Составы команд ▼
Качество: HDTVRip
Продолжительность: 01:09:12
Формат: MP4
Видео кодек: H.264
Аудио кодек: AAC
Свойства видео: 1280x720, 59.940 fps, 5 000 kbps
Свойства аудио: 48,0 kHz, 2 ch stereo, 128 kbps
Тех. описание ▼
Format : MPEG-4
Format profile : Base Media
Codec ID : isom
File size : 2.49 GiB
Duration : 1h 9mn
Overall bit rate : 5 149 Kbps
Movie name : The Dream Team
Writing application : Lavf53.24.0

Video
ID : 1
Format : AVC
Format/Info : Advanced Video Codec
Format profile : [email protected]
Format settings, CABAC : Yes
Format settings, ReFrames : 4 frames
Codec ID : avc1
Codec ID/Info : Advanced Video Coding
Duration : 1h 9mn
Bit rate : 5 000 Kbps
Width : 1 280 pixels
Height : 720 pixels
Display aspect ratio : 16:9
Frame rate mode : Constant
Frame rate : 59.940 fps
Color space : YUV
Chroma subsampling : 4:2:0
Bit depth : 8 bits
Scan type : Progressive
Bits/(Pixel*Frame) : 0.091
Stream size : 2.42 GiB (97%)
Writing library : x264 core 120 r2120 0c7dab9
Encoding settings : cabac=1 / ref=1 / deblock=1:0:-2 / analyse=0x3:0x113 / me=hex / subme=2 / psy=1 / psy_rd=1.00:0.00 / mixed_ref=0 / me_range=16 / chroma_me=0 / trellis=0 / 8x8dct=1 / cqm=0 / deadzone=21,11 / fast_pskip=1 / chroma_qp_offset=0 / threads=6 / sliced_threads=0 / nr=0 / decimate=1 / interlaced=0 / bluray_compat=0 / constrained_intra=0 / bframes=3 / b_pyramid=2 / b_adapt=1 / b_bias=0 / direct=1 / weightb=0 / open_gop=0 / weightp=0 / keyint=600 / keyint_min=60 / scenecut=40 / intra_refresh=0 / rc_lookahead=40 / rc=abr / mbtree=1 / bitrate=5000 / ratetol=0.3 / qcomp=0.60 / qpmin=0 / qpmax=51 / qpstep=4 / ip_ratio=1.40 / aq=1:0.60
Color primaries : BT.709-5, BT.1361, IEC 61966-2-4, SMPTE RP177
Transfer characteristics : BT.709-5, BT.1361
Matrix coefficients : BT.709-5, BT.1361, IEC 61966-2-4 709, SMPTE RP177

Audio
ID : 2
Format : AAC
Format/Info : Advanced Audio Codec
Format profile : LC
Codec ID : 40
Duration : 1h 9mn
Bit rate mode : Constant
Bit rate : 128 Kbps
Channel(s) : 2 channels
Channel positions : Front: L R
Sampling rate : 48.0 KHz
Compression mode : Lossy
Stream size : 63.3 MiB (2%)


Стол заказов POWER | Отзывы | Вступление в POWER
Мои раздачи




9e448ade77f10b8102243ecefac725f123bd798dThe Dream Team - NBA TV Documentary [Баскетбол,13.06.2012, HDTVRip/720p, MP4, EN] The Dream Team - NBA TV Documentary [Баскетбол,13.06.2012, HDTVRip/720p, MP4, EN] " />

Аплоадер: Админ, дата: 16-06-2012, 22:14, торрент скачан: 359 раз

Понравилась раздача? Посмотрите эти:
  • Чемпионат Франции 2013-2014 / 1-й тур / Обзор Матчей / Спорт 1 [12.08.2013, ...
  • Формула 1 2013 / Этап 6 из 19 / Гран-При Монако / Полный уик-энд / Спорт ...
  • Чемпионат Испании 2012-13 / 34-й тур / Обзор Тура / НТВ+ [06.05.2013, 720p, ...
  • Футбольный клуб / Чемпионат Европы 2012 / НТВ+ [Футбол, 08.06.2012, HDTVRip ...
  • Чемпионат Европы 2012 / Группа C / 1-й тур / Ирландия — Хорватия / Спорт 1 ...
  • Чемпионат Европы 2012 / 1/4 финала / Чехия - Португалия / Спорт 1 HD [Футбо ...
  • Чемпионат Европы 2012 / 1/2 финала / Португалия - Испания / Спорт 1 HD [Фу ...
  • Чемпионат Европы 2012 / 1/2 финала / Германия - Италия / Спорт 1 HD [Футбо ...
  • Товарищеский матч / США - Бразилия / ESPN [16.07.2012, Баскетбол, WEB-DLRip ...
  • Формула 1. Сезон 2012. Этап 13 из 20. Гран-При Италии, Квалификация. [2012 ...
  • Английская Премьер-Лига 2012-13 / Тур 20 / Арсенал - Ньюкасл Юнайтед [футбо ...
  • Английская Премьер-Лига 2012-13 / Тур 19 / Манчестер Юнайтед - Ньюкасл Юнай ...
  • NBA 2011-2012 / RS / Miami Heat @ Chicago Bulls / TNT [Баскетбол, 12.04.201 ...
  • Лига Чемпионов 2011-12 / 1/2 финала / Первый матч / Челси (Англия) - Барсел ...
  • Лига Чемпионов 2011-12 / 1/2 финала / Ответный матч / Реал (Испания) - Бава ...
  • Madonna / Girl Gone Wild [2012, Pop, HDTV]
  • Товарищеский матч / Сборная США - Сборная Доминиканской республики / ESPN [ ...
  • Церемония открытия летних Олимпийских игр 2012 в Лондоне. НТВ + [27.08.2012 ...
  • Чемпионат Испании 2012-13 / Тур 14 / Реал М - Атлетико М [футбол, 02.12.201 ...
  • Английская Премьер-Лига 2012-13 / Тур 15 / Рединг - Манчестер Юнайтед [футб ...
  • Информация
    Посетители, находящиеся в группе Гости, не могут оставлять комментарии к данной публикации.