вход на сайт

Имя пользователя :
Пароль :

Восстановление пароля Регистрация
NBA Playoffs 2012 / The Finals / Games 1 / Oklahoma City Thunder vs Miami Heat / NBA TV+ELTA HD [Баскетбол, 12.06.2012, HDTVRip/720p, MKV/H.264, EN]
Рейтинг:
(голосов: 1)



[img]{THEME}/images/logopost.png[/img]



NBA Play-Off 2011-2012


The Finals / Game 1
Вид спорта: Баскетбол
Год выпуска: 12.06.2012
Язык комментариев: Английский
Участники: Miami Heat @ Oklahoma City Thunder
Описание: Предлагаю вашему вниманию матч Финала НБА сезона 2011/2012
Автор рипа/записи: 52waha
Составы команд ▼Состав судей ▼Статистика матча ▼http://www.nba.com/games/20120612/MIAOKC/gameinfo.html
Качество: HDTVRip
Продолжительность ▼01:53:04
Формат: AVI
Видео кодек: H.264
Аудио кодек: AC3
Свойства видео: 1280x720, 29,97 fps, 3902 kbps
Свойства аудио: 44.1 khz, 2 ch. stereo, 128 kbps
Тех. описание ▼
Format : AVI
Format/Info : Audio Video Interleave
File size : 2.79 GiB
Duration : 1h 53mn
Overall bit rate : 3 532 Kbps
Movie name : 裝置
Writing application : Lavf52.84.0
Writing library : Boilsoft AVI tool build 1/release

Video
ID : 0
Format : AVC
Format/Info : Advanced Video Codec
Format profile : [email protected]
Format settings, CABAC : Yes
Format settings, ReFrames : 3 frames
Codec ID : H264
Duration : 1h 53mn
Bit rate : 3 392 Kbps
Width : 1 280 pixels
Height : 720 pixels
Display aspect ratio : 16:9
Frame rate mode : Variable
Frame rate : 29.970 fps
Color space : YUV
Chroma subsampling : 4:2:0
Bit depth : 8 bits
Scan type : Progressive
Bits/(Pixel*Frame) : 0.123
Stream size : 2.68 GiB (96%)

Audio
ID : 1
Format : AC-3
Format/Info : Audio Coding 3
Mode extension : CM (complete main)
Codec ID : 2000
Duration : 1h 53mn
Bit rate mode : Constant
Bit rate : 128 Kbps
Channel(s) : 2 channels
Channel positions : Front: L R
Sampling rate : 48.0 KHz
Bit depth : 16 bits
Compression mode : Lossy
Stream size : 104 MiB (4%)
Alignment : Aligned on interleaves
Interleave, duration : 32 ms (0.96 video frame)
Interleave, preload duration : 512 ms


Стол заказов POWER | Отзывы | Вступление в POWER
Мои раздачи


2849785d94be5e280d5a0663ffa97c8a7c258439NBA Playoffs 2012 / The Finals / Games 1 / Oklahoma City Thunder vs Miami Heat / NBA TV+ELTA HD [Баскетбол, 12.06.2012, HDTVRip/720p, MKV/H.264, EN] NBA Playoffs 2012 / The Finals / Games 1 / Oklahoma City Thunder vs Miami Heat / NBA TV+ELTA HD [Баскетбол, 12.06.2012, HDTVRip/720p, MKV/H.264, EN] " />

Аплоадер: Админ, дата: 13-06-2012, 18:31, торрент скачан: 359 раз

Понравилась раздача? Посмотрите эти:
  • NBA Playoffs 2013 / West / Semifinal / Game 3 / Oklahoma City Thunder @ Mem ...
  • NBA Playoffs 2013 / West / Semifinal / Game 4 / Oklahoma City Thunder @ Mem ...
  • NBA Playoffs 2013 / West / Semifinal / Game 5 / Memphis Grizzlies @ Oklahom ...
  • NBA Playoffs 2013 / West / Semifinal / Game 5 / Memphis Grizzlies @ Oklahom ...
  • NBA Playoffs 2013 / West / 1st Round / Game 4 / Oklahoma City Thunder @ Hou ...
  • NBA 2012-2013 / RS / Miami Heat @ Oklahoma City Thunder [Баскетбол, 14.02.2 ...
  • NBA 2012-2013 / RS / Miami Heat @ Oklahoma City Thunder [баскетбол, 14.02.2 ...
  • NBA 2011-2012 / RS / Oklahoma City Thunder @ Los Angeles Lakers / TNT [Баск ...
  • NBA 2011-2012 / RS / Oklahoma City Thunder @ Los Angeles Lakers / ESPN [Бас ...
  • NBA Playoffs 2012 / West / 1st Round / Game 4 / Dallas Mavericks @ Oklahoma ...
  • NBA Playoffs 2012 / East / Finals / Game 4 / Miami Heat vs Boston Celtics [ ...
  • NBA Playoffs 2012 / West / Final / Game 6 / San Antonio Spurs @ Oklahoma Ci ...
  • NBA Playoffs 2012 / The Finals / Games 1 / Oklahoma City Thunder vs Miami H ...
  • NBA Playoffs 2012 / The Finals / Games 3 / Oklahoma City Thunder @ Miami He ...
  • NBA Playoffs 2012 / The Finals / Games 4 / Oklahoma City Thunder @ Miami He ...
  • NBA Playoffs 2012 / The Finals / Games 5 / Oklahoma City Thunder @ Miami He ...
  • NBA Playoffs 2012 / The Finals / Games 5 / Oklahoma City Thunder @ Miami He ...
  • NBA 2012-2013 / RS / 01.11.2012 / Oklahoma City Thunder @ San Antonio Spurs ...
  • NBA 2012-2013 / RS / Oklahoma City Thunder @ Miami Heat [Баскетбол, 25.12. ...
  • NBA 2012-13 / RS / Oklahoma City Thunder @ Miami Heat [баскетбол,25.12.2012 ...
  • NBA Playoffs 2012 / West / Semifinal / Game 5 / Los Angeles Lakers @ Oklah ...
  • NBA Playoffs 2012 / The Finals / Games 4 / Oklahoma City Thunder @ Miami He ...
  • NBA Playoffs 2012 / The Finals / Games 5 / Oklahoma City Thunder @ Miami He ...
  • Top 10 Plays of the 2012 NBA Finals [Баскетбол, 25.06.2012, HD, 720p, H.264 ...
  • Top 10 Dunks of the 2012 NBA Finals [Баскетбол, 25.06.2012, HD, 720p, H.264 ...
  • Информация
    Посетители, находящиеся в группе Гости, не могут оставлять комментарии к данной публикации.