вход на сайт

Имя пользователя :
Пароль :

Восстановление пароля Регистрация
NBA Finals 2012 / NBA Tonight / Рассуждения на тему предстоящего финала / Viasat Sport [Баскетбол, 12.06.2012, SD, XviD, RU, IPTV]
Рейтинг:
(голосов: 1)



[img]{THEME}/images/logopost.png[/img]



NBA Play-Off 2011-2012
NBA Tonight
Вид спорта: Баскетбол
Год выпуска: 12.06.2012
Язык комментариев: Русский
Участники: Miami Heat @ Oklahoma City Thunder
Описание: Рассуждения на тему предстоящего финала НБА сезона 2011/2012
Качество: IPTVRip
Продолжительность ▼00:21:09
Формат: AVI
Видео кодек: XviD
Аудио кодек: MP3
Свойства видео: 704 x 400, 25 fps, 1440 kbps
Свойства аудио: 48 kHz, 2 ch, 128 kbps
Тех. описание ▼
Format : AVI
Format/Info : Audio Video Interleave
File size : 239 MiB
Duration : 21mn 9s
Overall bit rate : 1 578 Kbps
Writing library : VirtualDub build 34802/release

Video
ID : 0
Format : MPEG-4 Visual
Format profile : [email protected]
Format settings, BVOP : No
Format settings, QPel : No
Format settings, GMC : No warppoints
Format settings, Matrix : Default (H.263)
Codec ID : XVID
Codec ID/Hint : XviD
Duration : 21mn 9s
Bit rate : 1 378 Kbps
Width : 704 pixels
Height : 400 pixels
Display aspect ratio : 16:9
Frame rate : 25.000 fps
Color space : YUV
Chroma subsampling : 4:2:0
Bit depth : 8 bits
Scan type : Progressive
Compression mode : Lossy
Bits/(Pixel*Frame) : 0.196
Stream size : 209 MiB (87%)
Writing library : XviD 63

Audio
ID : 1
Format : MPEG Audio
Format version : Version 1
Format profile : Layer 3
Mode : Joint stereo
Mode extension : MS Stereo
Codec ID : 55
Codec ID/Hint : MP3
Duration : 21mn 9s
Bit rate mode : Constant
Bit rate : 128 Kbps
Channel(s) : 2 channels
Sampling rate : 48.0 KHz
Compression mode : Lossy
Stream size : 19.4 MiB (8%)
Alignment : Split accross interleaves


Стол заказов POWER | Отзывы | Вступление в POWER
Мои раздачи


1f39c543f560eb6837f9e01a02010504ccf88a8aNBA Finals 2012 / NBA Tonight / Рассуждения на тему предстоящего финала / Viasat Sport [Баскетбол, 12.06.2012, SD, XviD, RU, IPTV] NBA Finals 2012 / NBA Tonight / Рассуждения на тему предстоящего финала / Viasat Sport [Баскетбол, 12.06.2012, SD, XviD, RU, IPTV] " />

Аплоадер: Админ, дата: 12-06-2012, 16:35, торрент скачан: 359 раз

Понравилась раздача? Посмотрите эти:
  • NBA 2012-2013 / NBA Tonight / Viasat Sport [баскетбол,05.02.2013, SD,SATRip ...
  • NBA 2012-2013 / NBA Tonight / Viasat Sport [баскетбол,06.02.2013, SD,SATRip ...
  • NBA Playoffs 2012 / The Finals / Games 1 / Oklahoma City Thunder vs Miami H ...
  • NBA Playoffs 2012 / The Finals / Games 3 / Oklahoma City Thunder @ Miami He ...
  • NBA Playoffs 2012 / The Finals / Games 4 / Oklahoma City Thunder @ Miami He ...
  • NBA Playoffs 2012 / The Finals / Games 5 / Oklahoma City Thunder @ Miami He ...
  • NBA Playoffs 2012 / The Finals / Games 5 / Oklahoma City Thunder @ Miami He ...
  • NBA 2012-2013 / NBA Tonight / 01.11.2012 / Viasat Sport [баскетбол, 01.11.2 ...
  • NBA 2012-2013 / NBA Tonight / 09.01.2013 / Viasat Sport [баскетбол,09.01.20 ...
  • NBA 2012-2013 / NBA Tonight / 11.01.2013 / Viasat Sport [баскетбол,11.01.20 ...
  • NBA 2012-2013 / NBA Tonight / 03.01.2013 / Viasat Sport [баскетбол,03.01.20 ...
  • NBA 2012-2013 / NBA Tonight / 05.01.2013 / Viasat Sport [баскетбол,05.01.20 ...
  • NBA Playoffs 2012 / The Finals / Games 1 / Oklahoma City Thunder vs Miami H ...
  • NBA Finals 2012 / Sportscenter / В преддверии 3-ей игры / Viasat Sport [Бас ...
  • NBA Playoffs 2012 / The Finals / Games 4 / Oklahoma City Thunder @ Miami He ...
  • NBA Finals 2012 / Sportscenter / Четвертая игра под микроскопом / Viasat Sp ...
  • NBA Playoffs 2012 / The Finals / Games 5 / Oklahoma City Thunder @ Miami He ...
  • Top 10 Dunks of the 2012 NBA Finals [Баскетбол, 25.06.2012, HD, 720p, H.264 ...
  • Чемпионат России 2012-13 / 1-й тур / Мордовия - Локомотив / НТВ+ [Футбол, 2 ...
  • NBA 2012-2013 / NBA Tonight / 03.11.2012 / Viasat Sport [баскетбол, 01.11.2 ...
  • Информация
    Посетители, находящиеся в группе Гости, не могут оставлять комментарии к данной публикации.