вход на сайт

Имя пользователя :
Пароль :

Восстановление пароля Регистрация
NBA 2011-2012 / RS / Miami Heat @ Chicago Bulls / TNT [Баскетбол, 12.04.2012, WEB-DL HD/720p/60fps, MKV/H.264, EN]
Рейтинг:
(голосов: 1)



[img]{THEME}/images/logopost.png[/img]



NBA 2011-2012


Вид спорта: Баскетбол
Год выпуска: 12.04.2012
Язык комментариев: Английский
Участники: Miami Heat @ Chicago Bulls
Описание: Предлагаю вашему вниманию матч регулярного сезона НБА 2011/2012
Время начала: 08:00 PM ET
Автор рипа/записи: Kenshiro
Составы команд ▼
Статистика матча ▼http://www.nba.com/games/20120412/MIACHI/gameinfo.html
Качество: HDTVRip
Продолжительность ▼01:53:39
Формат: MP4
Видео кодек: H.264
Аудио кодек: AAC
Свойства видео: 1280x720, 59,940 fps, 3500 kbps
Свойства аудио: 44.1 khz, 2 ch. stereo, 128 kbps
Тех. описание ▼
Format : MPEG-4
Format profile : Base Media
Codec ID : isom
File size : 2.88 GiB
Duration : 1h 53mn
Overall bit rate : 3 636 Kbps
Movie name : Miami Heat @ Chicago Bulls [04.12.2012]
Writing application : Lavf53.24.0

Video
ID : 1
Format : AVC
Format/Info : Advanced Video Codec
Format profile : [email protected]
Format settings, CABAC : Yes
Format settings, ReFrames : 4 frames
Codec ID : avc1
Codec ID/Info : Advanced Video Coding
Duration : 1h 53mn
Bit rate : 3 500 Kbps
Width : 1 280 pixels
Height : 720 pixels
Display aspect ratio : 16:9
Frame rate mode : Constant
Frame rate : 59.940 fps
Color space : YUV
Chroma subsampling : 4:2:0
Bit depth : 8 bits
Scan type : Progressive
Bits/(Pixel*Frame) : 0.063
Stream size : 2.77 GiB (96%)
Writing library : x264 core 120 r2120 0c7dab9
Encoding settings : cabac=1 / ref=1 / deblock=1:1:2 / analyse=0x3:0x113 / me=dia / subme=1 / psy=1 / psy_rd=1.00:0.00 / mixed_ref=0 / me_range=16 / chroma_me=0 / trellis=0 / 8x8dct=1 / cqm=0 / deadzone=21,11 / fast_pskip=1 / chroma_qp_offset=0 / threads=6 / sliced_threads=0 / nr=0 / decimate=1 / interlaced=0 / bluray_compat=0 / constrained_intra=0 / bframes=3 / b_pyramid=2 / b_adapt=1 / b_bias=0 / direct=1 / weightb=0 / open_gop=0 / weightp=0 / keyint=600 / keyint_min=60 / scenecut=40 / intra_refresh=0 / rc_lookahead=40 / rc=abr / mbtree=1 / bitrate=3500 / ratetol=0.3 / qcomp=0.60 / qpmin=0 / qpmax=51 / qpstep=4 / ip_ratio=1.40 / aq=1:0.60
Color primaries : BT.709-5, BT.1361, IEC 61966-2-4, SMPTE RP177
Transfer characteristics : BT.709-5, BT.1361
Matrix coefficients : BT.709-5, BT.1361, IEC 61966-2-4 709, SMPTE RP177

Audio
ID : 2
Format : AAC
Format/Info : Advanced Audio Codec
Format profile : LC
Codec ID : 40
Duration : 1h 53mn
Bit rate mode : Constant
Bit rate : 128 Kbps
Channel(s) : 2 channels
Channel positions : Front: L R
Sampling rate : 48.0 KHz
Compression mode : Lossy
Stream size : 104 MiB (4%)


Стол заказов POWER | Отзывы | Вступление в POWER
И не забываем говорить СПАСИБО, ведь это будет вдохновлять меня на новые релизы !!!

Мои раздачи


Скачал сам - дай скачать другим! Не уходи с раздачи после скачивания!!!


b1901bcb268513ec1aaf11d631d2c23d0d98a13dNBA 2011-2012 / RS / Miami Heat @ Chicago Bulls / TNT [Баскетбол, 12.04.2012, WEB-DL HD/720p/60fps, MKV/H.264, EN] NBA 2011-2012 / RS / Miami Heat @ Chicago Bulls / TNT [Баскетбол, 12.04.2012, WEB-DL HD/720p/60fps, MKV/H.264, EN] " />

Аплоадер: Админ, дата: 13-04-2012, 13:03, торрент скачан: 359 раз

Понравилась раздача? Посмотрите эти:
  • NBA Playoffs 2013 / East / Semifinal / Game 1 / Chicago Bulls at Miami Heat ...
  • NBA Playoffs 2013 / East / Semifinal / Game 1 / Chicago Bulls @ Miami Heat ...
  • NBA Playoffs 2013 / East / Semifinal / Game 1 / Chicago Bulls @ Miami Heat ...
  • NBA Playoffs 2013 / East / Semifinal / Game 2 / Chicago Bulls @ Miami Heat ...
  • NBA Playoffs 2013 / East / Semifinal / Game 3 / Miami Heat @ Chicago Bulls ...
  • NBA Playoffs 2013 / East / Semifinal / Game 3 / Miami Heat at Chicago Bulls ...
  • NBA Playoffs 2013 / East / Semifinal / Game 3 / Miami Heat @ Chicago Bulls ...
  • NBA Playoffs 2013 / East / Semifinal / Game 4 / Miami Heat @ Chicago Bulls ...
  • NBA Playoffs 2013 / East / Semifinal / Game 4 / Miami Heat @ Chicago Bulls ...
  • NBA Playoffs 2013 / East / Semifinal / Game 5 / Chicago Bulls @ Miami Heat ...
  • NBA Playoffs 2013 / East / Semifinal / Game 5 / Chicago Bulls @ Miami Heat ...
  • NBA Playoffs 2013 / East / Semifinal / Game 5 / Chicago Bulls @ Miami Heat ...
  • NBA 2012-2013 / RS / Chicago Bulls @ Miami Heat [Баскетбол, 14.04.2013, WEB ...
  • NBA 2012-2013 / RS / Miami Heat @ Chicago Bulls [баскетбол, 21.02.2013,WEB- ...
  • NBA 2012-2013 / RS / Miami Heat @ Chicago Bulls [Баскетбол, 21.02.2013, WEB ...
  • NBA 2011-2012 / RS / 12.04.2012 / Miami Heat @ Chicago Bulls [Баскетбол, WE ...
  • NBA Playoffs 2012 / The Finals / Games 5 / Oklahoma City Thunder @ Miami He ...
  • NBA 2012-2013 / RS / 03.11.2012 / Denver Nuggets @ Miami Heat [Баскетбол, H ...
  • NBA 2012-2013 / RS / Chicago Bulls @ Miami Heat [баскетбол, 04.01.2013, WEB ...
  • The Dream Team - NBA TV Documentary [Баскетбол,13.06.2012, HDTVRip/720p, MP ...
  • Информация
    Посетители, находящиеся в группе Гости, не могут оставлять комментарии к данной публикации.