вход на сайт

Имя пользователя :
Пароль :

Восстановление пароля Регистрация
Нонито Донэйр - Хорхе Арсе / Nonito Donaire vs Jorge Arce [Бокс, 15.12.2012, SATRip]
Рейтинг:
(голосов: 1)



[img]{THEME}/images/logopost.png[/img]



♠ Нонито Донэйр - Хорхе Арсе / Nonito Donaire vs Jorge Arce ♠
« WBO Jr.Featherweight Championship »



♠Год выпуска: 2012
♠Страна: США
♠Вид спорта: Бокс

♠Язык комментариев: English


♠Участники: Нонито Донэйр vs Хорхе Арсе



♠Описание ▼ 15.12.2012г., США, Хьюстон, Тойота Центр.
Бой за титул чемпиона в первом полулегком весе по версии WBO.



♠Качество: SATRip
♠Продолжительность: 00:23:42час.

♠Формат: MPEG-4
♠Видео кодек: AVC
♠Аудио кодек: AAC
♠Видео: AVC.1280x720 (16:9), 59,94fps, H.264, 4532Kbps, 0.42bit/pixel
♠Аудио: AAC. 48KHz,2ch, 192kb/s

♠Премьера(мир) эфира: 15.12.2012


MediaInfo ▼
Text
Общее
Полное имя : F:Donaire vs Arce.MP4
Формат : MPEG-4
Профиль формата : 3GPP Media Release 4
Идентификатор кодека : 3gp4
Размер файла : 804 Мбайт
Продолжительность : 23 м.
Режим общего битрейта : Переменный
Общий поток : 4739 Кбит/сек
Дата кодирования : UTC 2012-12-16 03:56:05
Дата пометки : UTC 2012-12-16 03:56:05

Видео
Идентификатор : 1
Формат : AVC
Формат/Информация : Advanced Video Codec
Профиль формата : [email protected]
Параметр CABAC формата : Да
Параметр ReFrames формата : 4 кадра
Параметр GOP формата : M=4, N=32
Идентификатор кодека : avc1
Идентификатор кодека/Информация : Advanced Video Coding
Продолжительность : 23 м.
Вид битрейта : Переменный
Битрейт : 4532 Кбит/сек
Максимальный битрейт : 20,0 Мбит/сек
Ширина : 1280 пикселей
Высота : 720 пикселей
Соотношение сторон : 16:9
Режим частоты кадров : Переменный
Частота кадров : 59,940 кадров/сек
Минимальная частота кадров : 59,887 кадров/сек
Максимальная частота кадров : 60,006 кадров/сек
Цветовое пространство : YUV
Субдискретизация насыщенности : 4:2:0
Битовая глубина : 8 бит
Тип развёртки : Прогрессивная
Бит/(Пиксели*Кадры) : 0.082
Размер потока : 769 Мбайт (96%)
Язык : English
Дата кодирования : UTC 2012-12-16 03:56:05
Дата пометки : UTC 2012-12-16 03:56:05
Основные цвета : BT.709
Характеристики трансфера : BT.709
Коэффициенты матрицы : BT.709

Аудио
Идентификатор : 2
Формат : AAC
Формат/Информация : Advanced Audio Codec
Профиль формата : LC
Идентификатор кодека : 40
Продолжительность : 23 м.
Вид битрейта : Постоянный
Битрейт : 192 Кбит/сек
Каналы : 2 канала
Расположение каналов : Front: L R
Частота : 48,0 КГц
Метод сжатия : С потерями
Размер потока : 32,1 Мбайт (4%)
Язык : English
Дата кодирования : UTC 2012-12-16 03:56:10
Дата пометки : UTC 2012-12-16 03:56:10



c5f3e98dd622dd7ea1daa966163fc2d0738283dfНонито Донэйр - Хорхе Арсе / Nonito Donaire vs Jorge Arce [Бокс, 15.12.2012, SATRip] Нонито Донэйр - Хорхе Арсе / Nonito Donaire vs Jorge Arce [Бокс, 15.12.2012, SATRip] " />

Аплоадер: Админ, дата: 17-12-2012, 17:39, торрент скачан: 359 раз

Понравилась раздача? Посмотрите эти:
  • Горячий шоколад / Стены [2012, Pop, HDRip]
  • Kiev / Hyper Time Lapse [2011, Art, Travel, Nature, MasterRip]
  • DJ Smash feat. Винтаж / Москва [2012, Pop, HDRip]
  • After School Red / In The Night Sky [2011, KPop, Master]
  • Rita Ora / Shine Ya Light [2012, R&B, Master]
  • Elvira T / Море [2013, Pop, HDRip]
  • Elvira T / Одержима [2013, Pop, HDRip]
  • Русский Размер / До тебя [2012, Pop, HDRip]
  • Герои / Километры [2012, Pop, HDRip]
  • Герои / Закаты алые [2012, Pop, WebRip]
  • Tonari no kaibutsu kun / Rihanna Diamonds (2012)
  • Miranda Cosgrove / Dancing Crazy [2011, Pop, WEB-DLRip 720p]
  • Потап и Настя Каменских / Прилелето [2012, Pop, Master]
  • Madcon / The Signal [2013, Hip-Hop, HDRip]
  • Avril Lavigne / Smile [2011, Pop, HDRip]
  • Charli XCX / Superlove [2013, Pop, Master]
  • Christina Aguilera / Not Myself Tonight [2010, Dance, Pop, Master]
  • Ariana Grande - ft. Mac Miller / The Way [2013, Pop, WEB-DLRip 1080p]
  • Нонито Донэйр - Гильермо Ригондо / Nonito Donaire vs Guillermo Rigondeaux ...
  • Nonito Donaire vs Guillermo Rigondeaux + андеркарт / Бойцовский клуб [бокс ...
  • Хулио Сезар Чавес мл. - Марко Антонио Рубио / Нонито Донэйр - Вильфредо Вас ...
  • Чемпионат Англии 2012-2013 / 18-й тур / Челси - Астон Вилла / Спорт 1 [23.1 ...
  • Kylie Minogue / Live At Last Night of The Proms [2012, Pop, HDTVRip 1080i]
  • Nonito Donaire vs. Jorge Arce / Нонито Донэйр - Хорхе Арсе [бокс, 15.12.201 ...
  • Лига Чемпионов 2012-13 / 3-й тур / Группа D / Боруссия Д (Германия) - Реал ...
  • Информация
    Посетители, находящиеся в группе Гости, не могут оставлять комментарии к данной публикации.