вход на сайт

Имя пользователя :
Пароль :

Восстановление пароля Регистрация
Denis Lebedev VS Guillermo Jones / Денис Лебедев - Гильермо Джонс / Спорт 1 HD [17.05.2013, Бокс, HDTV/1080i, H.264, RU]
Рейтинг:
(голосов: 1)



[img]{THEME}/images/logopost.png[/img]



Денис Лебедев - Гильермо Джонс
Вид спорта: Бокс
Год выпуска: 17.05.2013
Язык комментариев: Русский (Андрей Шкаликов и Борис Скрипко)
Участники: Денис Лебедев - Гильермо Джонс
Описание: Описание:пятницу в Москве на арене "Крокус-Сити Холл" состоится большой боксёрский вечер, основным событием боксерсокого вечера станет поединок, в котором российский боксер Денис Лебедев будет защищать чемпионский титул против панамца Гильермо Джонса. Этот долгожданный поединок наконец-то состоится.
Промоутер панамца, всемирно известный организатор боксерских поединков Дон Кинг, работавший с Мухаммедом Али, Майком Тайсоном, Лари Холмсом, Эвандером Холифилдом, на протяжении нескольких лет старался отсрочить поединок своего подопечного.
Автор рипа/записи: MrDrax
Качество: HDTV
Продолжительность: 00:46:34
Формат:TS
Видео кодек: H.264
Аудио кодек: MP2
Свойства видео: 1920x1080, 25,000 кадров/сек, ~12.9 Мбит/сек
Свойства аудио: 48,0 КГц, 2ch stereo, 192 Кбит/секТех. данные ▼E:Äåíèñ Ëåáåäåâ - Ãèëüåðìî Äæîíñ 1080i.ts
General #1
ID : 1 (0x1)
Complete name : E:Äåíèñ Ëåáåäåâ - Ãèëüåðìî Äæîíñ 1080i.ts
Format : MPEG-TS
File size : 4.21 GiB
Duration : 46mn 34s
Overall bit rate mode : Variable
Overall bit rate : 12.9 Mbps
Video #303
ID : 303 (0x12F)
Menu ID : 1 (0x1)
Format : AVC
Format/Info : Advanced Video Codec
Format profile : [email protected]
Format settings, CABAC : Yes
Format settings, ReFrames : 3 frames
Codec ID : 27
Duration : 46mn 34s
Bit rate : 12.1 Mbps
Width : 1 920 pixels
Height : 1 080 pixels
Display aspect ratio : 16:9
Frame rate : 25.000 fps
Standard : Component
Color space : YUV
Chroma subsampling : 4:2:0
Bit depth : 8 bits
Scan type : Interlaced
Scan order : Top Field First
Bits/(Pixel*Frame) : 0.233
Stream size : 3.94 GiB (94%)
Color primaries : BT.709
Transfer characteristics : BT.709
Matrix coefficients : BT.709
Audio #403
ID : 403 (0x193)
Menu ID : 1 (0x1)
Format : MPEG Audio
Format version : Version 1
Format profile : Layer 2
Codec ID : 3
Duration : 46mn 34s
Bit rate mode : Constant
Bit rate : 192 Kbps
Channel(s) : 2 channels
Sampling rate : 48.0 KHz
Compression mode : Lossy
Stream size : 64.0 MiB (1%)
Language : Russian



Раздача Beeline


7b2bcfe62d926f31b8f8997a8c0dd011f751dd00Denis Lebedev VS Guillermo Jones / Денис Лебедев - Гильермо Джонс / Спорт 1 HD [17.05.2013, Бокс, HDTV/1080i, H.264, RU] Denis Lebedev VS Guillermo Jones / Денис Лебедев - Гильермо Джонс / Спорт 1 HD [17.05.2013, Бокс, HDTV/1080i, H.264, RU] " />

Аплоадер: Админ, дата: 18-05-2013, 05:06, торрент скачан: 359 раз

Понравилась раздача? Посмотрите эти:
  • Чемпионат Италии 2013-2014 / 20-й тур / Обзор тура / НТВ+ [Футбол, 20.01.20 ...
  • Чемпионат Англии 2013-2014 / 12-й тур / Манчестер Сити (Манчестер) - Тоттен ...
  • Гильермо Ригондо - Джозеф Агбеко (+ андеркарт) / Guillermo Rigondeaux vs. J ...
  • Бой за звание чемпиона мира / Геннадий Головкин - Кертис Стивенс / Первый H ...
  • Чемпионат Англии 2013-2014 / 6-й тур / Суонси Сити (Суонси) - Арсенал (Лонд ...
  • Владимир Кличко - Александр Поветкин / Первый HD [Бокс, 05.10.2013, H.264, ...
  • Friendly match 2013 / Brazil - Portugal [футбол, 10.09.2013, HDTV 1080i,FR] ...
  • Чемпионат Мира 2014 / Отборочный турнир / Группа I / 10-й тур / Беларусь - ...
  • Чемпионат Мира 2014 / Отборочный турнир / Группа F / Россия - Израиль / Спо ...
  • Суперкубок Германии 2013 / Боруссия Дортмунд - Баварию Мюнхен / Спорт 1 HD ...
  • Чемпионат Англии 2012-2013 / 36-й тур / Манчестер Юнайтед - Челси / Спорт 1 ...
  • Чемпионат Германии 2012-2013 / 32-й тур / Боруссия (Дортмунд) – Бавария / Н ...
  • Чемпионат Испании 2012-13 / 34-й тур / Реал Мадрид - Вальядолид / НТВ+ [04. ...
  • Тележурнал "Евроголы" / Eurosport HD [Футбол, 06.05.2013, 1080i, H264, RU, ...
  • Denis Lebedev VS Guillermo Jones / Бой Денис Лебедев - Гильермо Джонс / Рос ...
  • [NG] Путешествие по Атлантике: Часть 2 / Travel across the Atlantic: Part 2 ...
  • [NG] Превосходство бегемота / The superiority of the hippo (Документальный, ...
  • Нонито Донэйр - Гильермо Ригондо / Nonito Donaire vs Guillermo Rigondeaux ...
  • Денис Лебедев - Рой Джонс младший [Бокс, 21.05.11, HDTVRip]
  • Чемпионат Испании 2011-12 / 35-й тур / Барселона - Реал / Футбол HD [Футбол ...
  • Денис Лебедев - Шон Кокс / Denis Lebedev vs Shawn Cox [Бокс, 2012, SATRip]
  • Rihanna / Diamonds (Victorias Secret) [2012, RnB, HDTV 1080i]
  • Бой за титул чемпиона мира в первом тяжелом весе по версии WBA. Денис Лебед ...
  • Денис Лебедев - Рой Джонс младший [Бокс, 21.05.11, HDTV]
  • Бой за титул чемпиона мира по боксу в супертяжелом весе по версии IBF / Вла ...
  • Информация
    Посетители, находящиеся в группе Гости, не могут оставлять комментарии к данной публикации.