вход на сайт

Имя пользователя :
Пароль :

Восстановление пароля Регистрация
Nonito Donaire vs. Jeffrey Mathebula / Нонито Донэйр - Джефри Матебула + Андекарт / НТВ+[Бокс, 07.07.2012, SATRip, RU]
Рейтинг:
(голосов: 1)



[img]{THEME}/images/logopost.png[/img]



Nonito Donaire vs. Jeffrey Mathebula
Андеркарт
Вид спорта: Бокс
Год выпуска: 07.07.2012
Язык комментариев: Русский (Владимир Гендлин ст.)
Участники: Нонито Донэйр - Джефри Матебула
Описание: Главным событием вечера станет объединительный поединок во втором легчайшем весе между чемпионом мира по версии WBO Нонито Донэйром (28-1, 18 КО) и обладателем титула IBF Джеффри Матебула (26-3-2, 14 КО). В рамках андеркарта известный экс-чемпион в среднем весе Келли Павлик (39-2, 34 КО) встретится с Уиллом Росински (16-1, 9 КО), а топ-контендер первого среднего веса Ванес Мартиросян (32-0, 20 КО) разомнется на джорнимене Райане Дэвисе (24-9-3, 9 КО).
Качество: SATRip
Продолжительность ▼01:49:48 + 01:00:58
Формат: AVI
Видео кодек: XviD
Аудио кодек: MP3
Свойства видео: 704x400 (16:9), 25.0fps, 1800kbps
Свойства аудио: 48000Hz, 2 channels, stereo, 128kbps
Тех. описание ▼
Format : AVI
Format/Info : Audio Video Interleave
File size : 845 MiB
Duration : 1h 0mn
Overall bit rate : 1 936 Kbps
Writing application : VirtualDubModRus 1.5.10.2 (build 2542/release)
Writing library : VirtualDub build 30009/release

Video
ID : 0
Format : MPEG-4 Visual
Format profile : Advanced [email protected]
Format settings, BVOP : 1
Format settings, QPel : No
Format settings, GMC : No warppoints
Format settings, Matrix : Default (H.263)
Muxing mode : Packed bitstream
Codec ID : XVID
Codec ID/Hint : XviD
Duration : 1h 0mn
Bit rate : 1 799 Kbps
Width : 704 pixels
Height : 400 pixels
Display aspect ratio : 16:9
Frame rate : 25.000 fps
Color space : YUV
Chroma subsampling : 4:2:0
Bit depth : 8 bits
Scan type : Progressive
Compression mode : Lossy
Bits/(Pixel*Frame) : 0.256
Stream size : 785 MiB (93%)
Writing library : XviD 64

Audio
ID : 1
Format : MPEG Audio
Format version : Version 1
Format profile : Layer 3
Mode : Joint stereo
Mode extension : MS Stereo
Codec ID : 55
Codec ID/Hint : MP3
Duration : 1h 0mn
Bit rate mode : Constant
Bit rate : 128 Kbps
Channel(s) : 2 channels
Sampling rate : 48.0 KHz
Compression mode : Lossy
Stream size : 55.8 MiB (7%)
Alignment : Split accross interleaves
Interleave, duration : 40 ms (1.00 video frame)
Interleave, preload duration : 500 ms


Стол заказов POWER | Отзывы | Вступление в POWER
Мои раздачи


0ce1e4f132030724cf0bbf3a07b49d6d56505478Nonito Donaire vs. Jeffrey Mathebula / Нонито Донэйр - Джефри Матебула + Андекарт / НТВ+[Бокс, 07.07.2012, SATRip, RU] Nonito Donaire vs. Jeffrey Mathebula / Нонито Донэйр - Джефри Матебула + Андекарт / НТВ+[Бокс, 07.07.2012, SATRip, RU] " />

Аплоадер: Админ, дата: 11-07-2012, 21:38, торрент скачан: 359 раз

Понравилась раздача? Посмотрите эти:
  • Чемпионат Италии 2012-13 / 36-й тур / Рома — Кьево / НТВ+ [07.05.2013, SD, ...
  • Нонито Донэйр - Гильермо Ригондо / Nonito Donaire vs Guillermo Rigondeaux ...
  • Nonito Donaire vs Guillermo Rigondeaux + андеркарт / Бойцовский клуб [бокс ...
  • Молодежный чемпионат мира 2012 (U-20). Четвертьфинал: Россия - Чехия [02.01 ...
  • Хулио Сезар Чавес мл. - Марко Антонио Рубио / Нонито Донэйр - Вильфредо Вас ...
  • Чемпионат Германии 2011-12 / 28-й тур / Боруссия Д - Штутгарт / НТВ+ [Футбо ...
  • Чемпионат Испании 2011-12 / 36-й тур / Реал Мадрид - Севилья / НТВ+ [Футбол ...
  • Чемпионат Европы 2012 / Группа C / 1-й тур / Ирландия — Хорватия / ТРК Футб ...
  • Чемпионат Европы 2012 / Группа D / 1-й тур / Украина - Швеция / Спорт 1 [11 ...
  • Олимпиада 2012 / Мужчины / Группа D / 1-й тур / Испания — Япония / НТВ+ [Фу ...
  • Олимпиада 2012 / Футбол / Мужчины / Группа A / 3-й тур / Великобритания - У ...
  • Нонито Донэйр - Хорхе Арсе / Nonito Donaire vs Jorge Arce [Бокс, 15.12.2012 ...
  • Nonito Donaire vs. Jorge Arce / Нонито Донэйр - Хорхе Арсе [бокс, 15.12.201 ...
  • Олег Маскаев(Россия) – Оуэн Бек(Ямайка) Oleg Maskaev vs Owen Beck [Бокс, 3 ...
  • Нонито Донэйр - Омар Нарваэс / Nonito Donaire vs Omar Andres Narvaez / НТВ+ ...
  • Чемпионат Англии 2011-12 / 32-й тур / Обзор тура / Спорт 1 [Футбол, 10.04.2 ...
  • Чемпионат Англии 2011-2012 / Championship / 45-й Тур / Обзор Матчей / НТВ+ ...
  • Чемпионат Европы 2012 / Группа B / 1-й тур / Германия - Португалия / Спорт ...
  • NBA Finals 2012 / Sportscenter / В преддверии 3-ей игры / Viasat Sport [Бас ...
  • Бой за титул чемпиона мира в первом полусреднем весе по версии IBO / Хабиб ...
  • NBA Finals 2012 / Sportscenter / Четвертая игра под микроскопом / Viasat Sp ...
  • Олимпийский квалификационный турнир 2012 / Венесуэла / Мужчины / Группа C / ...
  • Чемпионат России 2012-13 / 1-й тур / Мордовия - Локомотив / НТВ+ [Футбол, 2 ...
  • Олимпиада 2012 / Женщины, Мужчины / Плавание / Квалификация / НТВ+ [30.07.2 ...
  • Товарищеский матч / Звёзды Малайзии - Манчестер Сити / ТК Футбол [Футбол, 2 ...
  • Информация
    Посетители, находящиеся в группе Гости, не могут оставлять комментарии к данной публикации.