вход на сайт

Имя пользователя :
Пароль :

Восстановление пароля Регистрация
Бой за титул чемпиона мира по боксу в супертяжелом весе по версии IBF / Владимир Кличко — Тони Томпсон / Wladimir Klitschko vs Tony Thompson / Спорт 1 [Бокс, 07.07.2012, HD, 1080i, RU, HDTV]
Рейтинг:
(голосов: 1)



[img]{THEME}/images/logopost.png[/img]



Бой за титул чемпиона мира по боксу в
супертяжелом весе по версии IBF
Владимир Кличко - Тони Томпсон
Вид спорта: Бокс
Год выпуска: 07.07.2012
Язык комментариев: Русский (Сергей Лозовский - Андрей Шкаликов)
Участники: Боксеры
Описание: Бой за титул чемпиона мира по боксу в супертяжелом весе по версии IBF
Качество: HDTV
Продолжительность ▼00:58:43
Формат: TS
Видео кодек: H264
Аудио кодек: MPEG
Свойства видео: 1920x1080 (16/9), 25,000fps, 14,3 Мбит/сек
Свойства аудио: 48 kHz, 2 ch, 192 Kbps
Тех. описание ▼
Format : MPEG-TS
File size : 6.26 GiB
Duration : 58mn 43s
Overall bit rate : 15.3 Mbps

Video
ID : 303 (0x12F)
Menu ID : 1 (0x1)
Format : AVC
Format/Info : Advanced Video Codec
Format profile : [email protected]
Format settings, CABAC : Yes
Format settings, ReFrames : 3 frames
Codec ID : 27
Duration : 58mn 43s
Bit rate : 14.3 Mbps
Width : 1 920 pixels
Height : 1 080 pixels
Display aspect ratio : 16:9
Frame rate : 25.000 fps
Standard : Component
Color space : YUV
Chroma subsampling : 4:2:0
Bit depth : 8 bits
Scan type : Interlaced
Scan order : Top Field First
Bits/(Pixel*Frame) : 0.276
Stream size : 5.87 GiB (94%)
Color primaries : BT.709-5, BT.1361, IEC 61966-2-4, SMPTE RP177
Transfer characteristics : BT.709-5, BT.1361
Matrix coefficients : BT.709-5, BT.1361, IEC 61966-2-4 709, SMPTE RP177

Audio
ID : 403 (0x193)
Menu ID : 1 (0x1)
Format : MPEG Audio
Format version : Version 1
Format profile : Layer 2
Codec ID : 3
Duration : 58mn 43s
Bit rate mode : Constant
Bit rate : 192 Kbps
Channel(s) : 2 channels
Sampling rate : 48.0 KHz
Compression mode : Lossy
Stream size : 80.7 MiB (1%)
Language : Russian


Стол заказов POWER | Отзывы | Вступление в POWER
Мои раздачи


f5a335939f3e9043207aa114098af7c6f2f91133Бой за титул чемпиона мира по боксу в супертяжелом весе по версии IBF / Владимир Кличко — Тони Томпсон / Wladimir Klitschko vs Tony Thompson / Спорт 1 [Бокс, 07.07.2012, HD, 1080i, RU, HDTV] Бой за титул чемпиона мира по боксу в супертяжелом весе по версии IBF / Владимир Кличко — Тони Томпсон / Wladimir Klitschko vs Tony Thompson / Спорт 1 [Бокс, 07.07.2012, HD, 1080i, RU, HDTV] " />

Аплоадер: Админ, дата: 8-07-2012, 11:02, торрент скачан: 359 раз

Понравилась раздача? Посмотрите эти:
  • Бой за звание чемпиона мира / Геннадий Головкин - Кертис Стивенс / Первый H ...
  • Владимир Кличко - Александр Поветкин / Первый HD [Бокс, 05.10.2013, H.264, ...
  • Alexandr Povetkin vs Wladimir Klitschko / Первый HD [бокс,05.10.2013, HDRip ...
  • Alexandr Povetkin vs Wladimir Klitschko / Первый HD [бокс,05.10.2013, HDTVR ...
  • Alexandr Povetkin vs Wladimir Klitschko / Первый HD [бокс,05.10.2013, HDTVR ...
  • Владимир Кличко - Франческо Пьянета / Wladimir Klitschko - Francesco Piane ...
  • Владимир Кличко — Франческо Пьянета / Wladimir Klitschko vs Francesco Piane ...
  • Wladimir Klitschko VS Francesco Pianeta / Владимир Кличко - Франческо Пиане ...
  • Denis Lebedev VS Guillermo Jones / Денис Лебедев - Гильермо Джонс / Спорт 1 ...
  • Бой за титул чемпиона мира в супертяжелом весе по версии WBA. Александр Пов ...
  • [3D] Бой за звание чемпиона мира в супертяжелом весе по версии WBA / David ...
  • Чемпионат Испании 2011-12 / 35-й тур / Барселона - Реал / Футбол HD [Футбол ...
  • Бой за титул чемпиона мира по боксу в супертяжелом весе по версии IBF / Вл ...
  • Бой за титул чемпиона мира по боксу в супертяжелом весе по версиям WBO и WB ...
  • Бой за титул чемпиона мира в первом тяжелом весе по версии WBA. Денис Лебед ...
  • Олег Маскаев(Россия) – Оуэн Бек(Ямайка) Oleg Maskaev vs Owen Beck [Бокс, 3 ...
  • Владимир Кличко VS Сэмюэль Питер / Wladimir Klitschko VS Samuel Peter / Р ...
  • Владимир Кличко - Дэвид Хэй / Wladimir Klitschko vs David Haye [Бокс, 02.07 ...
  • Виталий Кличко - Томаш Адамек / Vitali Klitschko vs Tomasz Adamek [Бокс, 1 ...
  • Виталий Кличко vs. Дерек Чисора / Vitali Klitschko vs. Dereck Chisora [бокс ...
  • Бой за титул чемпиона мира в первом полусреднем весе по версии IBO / Хабиб ...
  • Бой за титул чемпиона мира по боксу в супертяжелом весе по версии IBF / Вла ...
  • Виталий Кличко - Мануэль Чарр / Vitali Klitschko vs Manuel Charr [Бокс, 0 ...
  • Владимир Кличко - Мариуш Вах / Wladimir Klitschko - Mariusz Wach [Бокс, 10. ...
  • Вечер бокса в Гамбурге / Владимир Кличко - Мариуш Вах + андеркарт / Бойцовс ...
  • Информация
    Посетители, находящиеся в группе Гости, не могут оставлять комментарии к данной публикации.