вход на сайт

Имя пользователя :
Пароль :

Восстановление пароля Регистрация
Вечер бокса в Лас-Вегасе (США) / Магомед Абдусаламов - Морис Байарм / Magomed Abdusalamov vs Maurice Byarm + андеркард / Спорт 1 [Бокс, 06.07.2012, SD, H264, RU, SAT]
Рейтинг:
(голосов: 1)



[img]{THEME}/images/logopost.png[/img]



Вечер бокса в Лас-Вегасе (США)
Магомед Абдусаламов - Морис Байарм
Андеркард
Вид спорта: Бокс
Год выпуска: 06.07.2012
Язык комментариев: Русский
Участники: Боксеры
Описание: 6 июля на арене Hard Rock Hotel and Casino в американском Лас-Вегасе состоялся бой между небитым российским супертяжеловесом Магомедом Абдусаламовым (15-0-0, 15 КО) и Морисом Байармом (13-2-1, 9 КО). На кону стоял серебряный титул WBC USNBC
Доп. информация: Андекард:Заглавный бой в начале трансляции, далее ещё два поединка
Качество: SATRip
Продолжительность ▼01:17:25
Формат: MP4
Видео кодек: H264
Аудио кодек: AAC
Свойства видео: 720x400 (16:9), 25.000 fps, 1 000 Kbps (0.139 bit/pixel)
Свойства аудио: 48 kHz, 2 ch, 96.0 Kbps, VBR
Тех. описание ▼
Format : MPEG-4
Format profile : Base Media / Version 2
Codec ID : mp42
File size : 610 MiB
Duration : 1h 17mn
Overall bit rate mode : Variable
Overall bit rate : 1 100 Kbps
Encoded date : UTC 2012-07-07 08:38:10
Tagged date : UTC 2012-07-07 09:12:53
Writing application : HandBrake 0.9.5 2011010300

Video
ID : 1
Format : AVC
Format/Info : Advanced Video Codec
Format profile : [email protected]
Format settings, CABAC : Yes
Format settings, ReFrames : 4 frames
Codec ID : avc1
Codec ID/Info : Advanced Video Coding
Duration : 1h 17mn
Bit rate mode : Variable
Bit rate : 1 000 Kbps
Width : 720 pixels
Height : 400 pixels
Display aspect ratio : 16:9
Frame rate mode : Constant
Frame rate : 25.000 fps
Color space : YUV
Chroma subsampling : 4:2:0
Bit depth : 8 bits
Scan type : Progressive
Bits/(Pixel*Frame) : 0.139
Stream size : 554 MiB (91%)
Writing library : x264 core 112
Encoding settings : cabac=1 / ref=3 / deblock=1:0:0 / analyse=0x3:0x113 / me=hex / subme=7 / psy=1 / psy_rd=1.00:0.00 / mixed_ref=1 / me_range=16 / chroma_me=1 / trellis=1 / 8x8dct=1 / cqm=0 / deadzone=21,11 / fast_pskip=1 / chroma_qp_offset=-2 / threads=6 / sliced_threads=0 / nr=0 / decimate=1 / interlaced=0 / constrained_intra=0 / bframes=3 / b_pyramid=2 / b_adapt=1 / b_bias=0 / direct=1 / weightb=1 / open_gop=0 / weightp=2 / keyint=250 / keyint_min=25 / scenecut=40 / intra_refresh=0 / rc_lookahead=40 / rc=abr / mbtree=1 / bitrate=1000 / ratetol=1.0 / qcomp=0.60 / qpmin=3 / qpmax=51 / qpstep=4 / ip_ratio=1.40 / aq=1:1.00
Encoded date : UTC 2012-07-07 08:38:10
Tagged date : UTC 2012-07-07 09:12:53
Color primaries : BT.601-6 525, BT.1358 525, BT.1700 NTSC, SMPTE 170M
Transfer characteristics : BT.709-5, BT.1361
Matrix coefficients : BT.601-6 525, BT.1358 525, BT.1700 NTSC, SMPTE 170M

Audio
ID : 2
Format : AAC
Format/Info : Advanced Audio Codec
Format profile : LC
Codec ID : 40
Duration : 1h 17mn
Bit rate mode : Variable
Bit rate : 96.0 Kbps
Maximum bit rate : 148 Kbps
Channel(s) : 2 channels
Channel positions : Front: L R
Sampling rate : 48.0 KHz
Compression mode : Lossy
Stream size : 53.2 MiB (9%)
Language : German
Encoded date : UTC 2012-07-07 08:38:10
Tagged date : UTC 2012-07-07 09:12:53


Стол заказов POWER | Отзывы | Вступление в POWER
Мои раздачи


8a7eded34fea0882cc9bcbcc8e804a9176930f38Вечер бокса в Лас-Вегасе (США) / Магомед Абдусаламов - Морис Байарм / Magomed Abdusalamov vs Maurice Byarm + андеркард / Спорт 1 [Бокс, 06.07.2012, SD, H264, RU, SAT] Вечер бокса в Лас-Вегасе (США) / Магомед Абдусаламов - Морис Байарм / Magomed Abdusalamov vs Maurice Byarm + андеркард / Спорт 1 [Бокс, 06.07.2012, SD, H264, RU, SAT] " />

Аплоадер: Админ, дата: 7-07-2012, 16:55, торрент скачан: 359 раз

Понравилась раздача? Посмотрите эти:
  • FLO / NRG [2012, Pop, Dance, MasterRip]
  • Чемпионат Франции 2013-2014 / 1-й тур / Обзор Матчей / Спорт 1 [12.08.2013, ...
  • Формула 1 2013 / Этап 6 из 19 / Гран-При Монако / Полный уик-энд / Спорт ...
  • Формула 1 2013 / Этап 6 из 19 / Гран-При Монако / Полный уик-энд / Спорт ...
  • Вечер бокса в Лас-Вегасе / Андекард / НТВ+ [бокс,04.05.2013,HDTVRip, 400p, ...
  • Чемпионат Испании 2012-13 / 34-й тур / Обзор Тура / НТВ+ [06.05.2013, 720p, ...
  • Кубок Англии 2012-2013 / Превью финала / Спорт 1 [Футбол, 09.05.2013, 720p, ...
  • UFC - Best Of 2012 Year In Review[MMA,2013, BDRip 540p]
  • Футбольный клуб / Чемпионат Европы 2012 / НТВ+ [Футбол, 08.06.2012, HDTVRip ...
  • Чемпионат Европы 2012 / Группа C / 1-й тур / Ирландия — Хорватия / Спорт 1 ...
  • Чемпионат Европы 2012 / 1/4 финала / Чехия - Португалия / Спорт 1 HD [Футбо ...
  • Чемпионат Европы 2012 / 1/2 финала / Португалия - Испания / Спорт 1 HD [Фу ...
  • Чемпионат Европы 2012 / 1/2 финала / Германия - Италия / Спорт 1 HD [Футбо ...
  • Чемпионат Европы 2012 / Финал / Испания - Италия / Спорт 1 HD [Футбол, 01. ...
  • Все голы Евро-2012 [Футбол,2012, HDTVRip]
  • Товарищеский матч / США - Бразилия / ESPN [16.07.2012, Баскетбол, WEB-DLRip ...
  • Чемпионат Англии 2012-2013 / 12-й тур / Обзор / Суббота / BBC Sport [2012 г ...
  • Английская Премьер-Лига 2012-13 / Тур 20 / Арсенал - Ньюкасл Юнайтед [футбо ...
  • Mylene Farmer / Du Temps [2011, Pop, HDTVRip]
  • Английская Премьер-Лига 2012-13 / Тур 19 / Манчестер Юнайтед - Ньюкасл Юнай ...
  • Суперкубок Испании 2010 / ответный матч+награждение, Барселона – Севилья / ...
  • NBA 2011-2012 / RS / Miami Heat @ Chicago Bulls / TNT [Баскетбол, 12.04.201 ...
  • Madonna / Girl Gone Wild [2012, Pop, HDTV]
  • The Dream Team - NBA TV Documentary [Баскетбол,13.06.2012, HDTVRip/720p, MP ...
  • Церемония открытия летних Олимпийских игр 2012 в Лондоне. НТВ + [27.08.2012 ...
  • Информация
    Посетители, находящиеся в группе Гости, не могут оставлять комментарии к данной публикации.