вход на сайт

Имя пользователя :
Пароль :

Восстановление пароля Регистрация
Бой за титул чемпиона мира в первом полусреднем весе по версии IBO / Хабиб Аллахвердиев (Россия) vs Кайзер Мабуза (ЮАР) + андеркарт / Спорт 1 [Бокс, 20.06.2012, SD, XviD, RU, IPTV]
Рейтинг:
(голосов: 1)



[img]{THEME}/images/logopost.png[/img]



Бой за титул чемпиона мира в первом полусреднем весе по версии IBO
Хабиб Аллахвердиев (Россия) vs Кайзер Мабуза (ЮАР)
Вид спорта: Бокс
Год выпуска: 20.06.2012
Язык комментариев: Русский
Участники: Боксеры
Описание: Бой за титул чемпиона мира в первом полусреднем весе по версии IBO
Список боев ▼1. Григорий Дрозд - Фабио Гарридо
2. Олег Лисеев - Денис Тупиленко
3. Эдуард Трояновский - Клауденеи Ласерда
4. Хабиб Аллахвердиев (Россия) vs Кайзер Мабуза (ЮАР)
Качество: IPTVRip / SD
Продолжительность ▼00:10:32 + 00:16:56 + 00:51:12 + 00:36:46
Формат: AVI
Видео кодек: XviD
Аудио кодек: MP3
Свойства видео: XviD MPEG-4, 704x400 (1,76;1), 25 fps, 1 700 Kbps, 0.242 bit/pixel
Свойства аудио: 48 kHz, 2 ch, 112.00 kbps avg
Тех. описание ▼
Format : AVI
Format/Info : Audio Video Interleave
File size : 479 MiB
Duration : 36mn 46s
Overall bit rate : 1 820 Kbps
Writing library : VirtualDub build 33815/release

Video
ID : 0
Format : MPEG-4 Visual
Format profile : Advanced [email protected]
Format settings, BVOP : 2
Format settings, QPel : No
Format settings, GMC : No warppoints
Format settings, Matrix : Default (H.263)
Muxing mode : Packed bitstream
Codec ID : XVID
Codec ID/Hint : XviD
Duration : 36mn 46s
Bit rate : 1 698 Kbps
Width : 704 pixels
Height : 400 pixels
Display aspect ratio : 16:9
Frame rate : 25.000 fps
Color space : YUV
Chroma subsampling : 4:2:0
Bit depth : 8 bits
Scan type : Progressive
Compression mode : Lossy
Bits/(Pixel*Frame) : 0.241
Stream size : 447 MiB (93%)
Writing library : XviD 1.2.1 (UTC 2008-12-04)

Audio
ID : 1
Format : MPEG Audio
Format version : Version 1
Format profile : Layer 3
Mode : Joint stereo
Mode extension : MS Stereo
Codec ID : 55
Codec ID/Hint : MP3
Duration : 36mn 46s
Bit rate mode : Constant
Bit rate : 112 Kbps
Channel(s) : 2 channels
Sampling rate : 48.0 KHz
Compression mode : Lossy
Stream size : 29.5 MiB (6%)
Alignment : Split accross interleaves
Interleave, duration : 40 ms (1.00 video frame)
Interleave, preload duration : 500 ms


Стол заказов POWER | Отзывы | Вступление в POWER
Мои раздачи


9b12a423154d122fe9fb7577d8e36edf783806aeБой за титул чемпиона мира в первом полусреднем весе по версии IBO / Хабиб Аллахвердиев (Россия) vs Кайзер Мабуза (ЮАР) + андеркарт / Спорт 1 [Бокс, 20.06.2012, SD, XviD, RU, IPTV] Бой за титул чемпиона мира в первом полусреднем весе по версии IBO / Хабиб Аллахвердиев (Россия) vs Кайзер Мабуза (ЮАР) + андеркарт / Спорт 1 [Бокс, 20.06.2012, SD, XviD, RU, IPTV] " />

Аплоадер: Админ, дата: 21-06-2012, 10:58, торрент скачан: 359 раз

Понравилась раздача? Посмотрите эти:
  • Эдриэн Бронер - Маркос Майдана (+ андеркарт) / Adrien Broner vs Marcos Rene ...
  • Мэнни Пакьяо - Брэндон Риос (+ андеркарт) / Manny Pacquiao Vs. Brandon Rios ...
  • Келл Брук - Вячеслав Сенченко (+ андеркарт) / Kell Brook vs Vyacheslav Senc ...
  • Khabib Allakhverdiev vs Souleymane Mbaye (+ undercard) / Хабиб Аллахвердиев ...
  • Oleg Maskaev vs Jason Gavern / Олег Маскаев – Джейсон Гаверн / Андекард / Р ...
  • Бой за титул чемпиона мира в супертяжелом весе по версии WBA. Александр Пов ...
  • Заб Джуда – Кайзер Мабуза / Zab Judah vs Kaizer Mabuza / НТВ+ [бокс, 05.03. ...
  • Молодежный чемпионат мира 2012 (U-20). Четвертьфинал: Россия - Чехия [02.01 ...
  • Бой за титул чемпиона мира по боксу в супертяжелом весе по версии IBF / Вл ...
  • Бой за титул чемпиона мира по боксу в супертяжелом весе по версиям WBO и WB ...
  • Чемпионат Мира 2014 | Отборочный турнир | Европа | Группа H | Англия - Укра ...
  • Чемпионат Мира 2014 | Отборочный турнир | Европа | Группа F | Португалия - ...
  • Александр Поветкин – Хасим Рахман / Alexander Povetkin vs Hasim Rahman + Ан ...
  • Бой за титул чемпиона мира в первом тяжелом весе по версии WBA. Денис Лебед ...
  • Олег Маскаев(Россия) – Оуэн Бек(Ямайка) Oleg Maskaev vs Owen Beck [Бокс, 3 ...
  • NBA Finals 2012 / Sportscenter / В преддверии 3-ей игры / Viasat Sport [Бас ...
  • NBA Finals 2012 / Sportscenter / Четвертая игра под микроскопом / Viasat Sp ...
  • Олимпийский квалификационный турнир 2012 / Венесуэла / Мужчины / Группа C / ...
  • Бой за титул чемпиона мира по боксу в супертяжелом весе по версии IBF / Вла ...
  • Бой за титул чемпиона мира по боксу в супертяжелом весе по версии IBF / Вла ...
  • Nonito Donaire vs. Jeffrey Mathebula / Нонито Донэйр - Джефри Матебула + Ан ...
  • Амир Хан – Дэнни Гарсия / Amir Khan vs Danny Garcia + Андеркарт / НТВ+ [бок ...
  • Чемпионат России 2012-13 / 1-й тур / Мордовия - Локомотив / НТВ+ [Футбол, 2 ...
  • Сауль Альварес – Хосесито Лопес / Saul Alvarez vs Josesito Lopez + Андеркар ...
  • Вечер бокса в Гамбурге / Владимир Кличко - Мариуш Вах + андеркарт / Бойцовс ...
  • Информация
    Посетители, находящиеся в группе Гости, не могут оставлять комментарии к данной публикации.