вход на сайт

Имя пользователя :
Пароль :

Восстановление пароля Регистрация
Wimbledon 2012 / Финал / Роджер Федерер (Швейцария) — Энди Маррей (Великобритания) / Federer — Murray / НТВ+ [Теннис, 08.07.2012, SD, XviD, RU, SAT]
Рейтинг:
(голосов: 1)



[img]{THEME}/images/logopost.png[/img]



Wimbledon 2012

Финал
Роджер Федерер (Швейцария) — Энди Маррей (Великобритания)
Вид спорта: Большой теннис
Год выпуска: 08.07.2012
Язык комментариев: Русский (Александр Метревели - Анна Дмитриева)
Участники: Роджер Федерер (Швейцария) — Энди Маррей (Великобритания)
Описание: Wimbledon 2012 / Финал
Место: Лондон, Великобритания
Дата: 25.06.2012 - 08.07.2012
Стадион: Всеанглийский клуб лаун-тенниса и крокета
Покрытие: Трава (открытые корты)
Призовой фонд: $ 9.061.792
Результат матча ▼
Качество: SATRip
Продолжительность ▼04:11:55
Формат: AVI
Видео кодек: XviD
Аудио кодек: MP3
Свойства видео: 704x400, 25 fps, 1.8 Мbps, 0.256 bit/pixel
Свойства аудио: 48 kHz, MPEG Layer 3, 2 ch, 128 kbps
Тех. описание ▼
Format : AVI
Format/Info : Audio Video Interleave
File size : 3.41 GiB
Duration : 4h 11mn
Overall bit rate : 1 937 Kbps

Video
ID : 0
Format : MPEG-4 Visual
Codec ID : XVID
Codec ID/Hint : XviD
Duration : 4h 11mn
Bit rate : 1 799 Kbps
Width : 704 pixels
Height : 400 pixels
Display aspect ratio : 16:9
Frame rate : 25.000 fps
Color space : YUV
Chroma subsampling : 4:2:0
Compression mode : Lossy
Bits/(Pixel*Frame) : 0.256
Stream size : 2.49 GiB (73%)

Audio
ID : 1
Format : MPEG Audio
Codec ID : 55
Codec ID/Hint : MP3
Duration : 4h 11mn
Bit rate : 128 Kbps
Channel(s) : 2 channels
Sampling rate : 48.0 KHz
Compression mode : Lossy
Stream size : 182 MiB (5%)
Alignment : Aligned on interleaves
Interleave, duration : 40 ms (1.00 video frame)

Стол заказов POWER | Отзывы | Вступление в POWER
Мои раздачи
Храню файлы 3 дня, потом удаляю


0ec8a515d261b59b3e9643d2b2841c08fe0b4baeWimbledon 2012 / Финал / Роджер Федерер (Швейцария) — Энди Маррей (Великобритания) / Federer — Murray / НТВ+ [Теннис, 08.07.2012, SD, XviD, RU, SAT] Wimbledon 2012 / Финал / Роджер Федерер (Швейцария) — Энди Маррей (Великобритания) / Federer — Murray / НТВ+ [Теннис, 08.07.2012, SD, XviD, RU, SAT] " />

Аплоадер: Админ, дата: 9-07-2012, 10:20, торрент скачан: 359 раз

Понравилась раздача? Посмотрите эти:
  • Australian Open 2014 / Мужчины / Финал / Рафаэль Надаль (Испания) - Станисл ...
  • Wimbledon 2013 / 1/4 финала / Давид Феррер - Хуан Мартин Дель Потро / Спор ...
  • Wimbledon 2013 / Полуфинал / Сабина Лисицки (Германия) - Агнешка Радваньска ...
  • Wimbledon 2013 / 1/2 Финала / Новак Джокович (Сербия) - Хуан Мартин Дель П ...
  • Wimbledon 2013 / 1/2 Финала / Ежи Янович (Польша) - Энди Маррей (Великобрит ...
  • Wimbledon 2013 / Финал / Сабина Лисицки (Германия) - Марион Бартоли (Франци ...
  • Roland Garros 2013 / 1-й раунд / Пабло Карреньо-Буста - Роджер Федерер / C. ...
  • Rome 2013 / Финал / Рафаэль Надаль - Роджер Федерер / Rafael Nadal - Roger ...
  • Wimbledon 2012 / 4-й круг / Мария Шарапова (Россия) - Сабина Лисицки (Герма ...
  • Wimbledon 2012 / 1/2 финала / Новак Джокович - Роджер Федерер / Novak Djoko ...
  • Олимпиада 2012 / Мужчины / Группа A / 1-й тур / Великобритания — Сенегал / ...
  • Олимпиада 2012 / Футбол / Мужчины / Группа A / 3-й тур / Великобритания - У ...
  • Australian Open 2013 / Мужчины / Финал / Новак Джокович (Сербия) - Энди Мар ...
  • Roland Garros 2011 / French Open - Paris / Финал / Рафаэль Надаль – Роджер ...
  • US Open 2011 / New York / 1/2 финала / Новак Джокович (Сербия) - Роджер Фед ...
  • Roland Garros 2012 / Финал / Сара Эррани (Италия) - Мария Шарапова (Россия) ...
  • Roland Garros 2012 / Финал / Новак Джокович (Сербия) - Рафаэль Надаль (Испа ...
  • Чемпионат Европы 2012 / Финал / Испания - Италия / Россия 1 [Футбол, 01.07. ...
  • Локомотив - время надежд / НТВ+ [Футбол, 19.07.2012, IPTV, RU]
  • Чемпионат России 2012-13 / 1-й тур / Мордовия - Локомотив / НТВ+ [Футбол, 2 ...
  • Олимпиада 2012 / Мужчины / Прыжки на батуте / Финал / НТВ+ [03.08.2012, SD, ...
  • ХХХ Летние Олимпийские Игры / Лёгкая атлетика / День 8 / Вечер [10.08.2012, ...
  • Олимпиада 2012 / Мужчины / Финал / Бразилия - Мексика / НТВ+ [Футбол, 11.08 ...
  • US Open 2012 | Финал | Новак Джокович – Энди Маррей | Djokovic - Murray | H ...
  • Лига Европы 2012-13 / 5-й тур / Группа А / Ливерпуль (Англия) - Янг Бойз (Ш ...
  • Информация
    Посетители, находящиеся в группе Гости, не могут оставлять комментарии к данной публикации.