вход на сайт

Имя пользователя :
Пароль :

Восстановление пароля Регистрация
Снукер / World Snooker Championship 2013 / Крусибл, Шеффилд / День 7 / Eurosport, Eurosport 2 [26.04.2013, Снукер, 400p, XviD, RU, SATRip]
Рейтинг:
(голосов: 1)



[img]{THEME}/images/logopost.png[/img]



Снукер / World Snooker Championship 2013 / Крусибл, Шеффилд / День 7 /

Вид спорта:: Снукер
Год выпуска: 26.04.2013
Язык комментариев: Русский (Владимир Синицын, Дмитрий Кузьмин)
Участники/ Состав команд:"Участники" ▼1. Shaun Murphy - Graeme Dott
2. Barry Hawkins - Mark Selby
3. Michael White - Dechawar Poomjaeng
4. Marco Fu - Judd Trump

Описание: Описание: Чемпионат мира 2013. 20 апреля – 6 мая. Крусибл, Шеффилд.


Качество: SATRip
Продолжительность: ~ 16:00:00

Формат: AVI
Видео кодек: XviD
Аудио кодек: MP3
Свойства видео: 720x405 (16:9), 25 fps, XviD 1800 kbps avg, 0.27 bit/pixel
Свойства аудио: 48 kHz, MPEG Layer 3, 2 ch, ~128.00 kbps avg

"Media Info " ▼D:ADMINDownloadsÄåíü 71. Shaun Murphy - Graeme Dott 2 ñåññèÿ.avi
General
Complete name : D:ADMINDownloadsÄåíü 71. Shaun Murphy - Graeme Dott 2 ñåññèÿ.avi
Format : AVI
Format/Info : Audio Video Interleave
Format profile : OpenDML
File size : 2.01 GiB
Duration : 3h 19mn
Overall bit rate : 1 438 Kbps
Writing application : Lavf52.54.0
Video #0
ID : 0
Format : MPEG-4 Visual
Format profile : [email protected]
Format settings, BVOP : No
Format settings, QPel : No
Format settings, GMC : No warppoints
Format settings, Matrix : Default (H.263)
Codec ID : XVID
Codec ID/Hint : XviD
Duration : 3h 19mn
Bit rate : 1 298 Kbps
Width : 720 pixels
Height : 400 pixels
Display aspect ratio : 16:9
Frame rate : 25.000 fps
Color space : YUV
Chroma subsampling : 4:2:0
Bit depth : 8 bits
Scan type : Progressive
Compression mode : Lossy
Bits/(Pixel*Frame) : 0.180
Stream size : 1.81 GiB (90%)
Writing library : XviD 1.1.2 (UTC 2006-11-01)
Audio #1
ID : 1
Format : MPEG Audio
Format version : Version 1
Format profile : Layer 3
Mode : Joint stereo
Mode extension : MS Stereo
Codec ID : 55
Codec ID/Hint : MP3
Duration : 3h 18mn
Bit rate mode : Constant
Bit rate : 128 Kbps
Channel(s) : 2 channels
Sampling rate : 48.0 KHz
Compression mode : Lossy
Stream size : 182 MiB (9%)
Alignment : Aligned on interleaves
Interleave, duration : 24 ms (0.60 video frame)
Interleave, preload duration : 408 ms



073361ca4a7908607c32b5427b099f2f8a2e200cСнукер / World Snooker Championship 2013 / Крусибл, Шеффилд / День 7 / Eurosport, Eurosport 2 [26.04.2013, Снукер, 400p, XviD, RU, SATRip] Снукер / World Snooker Championship 2013 / Крусибл, Шеффилд / День 7 / Eurosport, Eurosport 2 [26.04.2013, Снукер, 400p, XviD, RU, SATRip] " />

Аплоадер: Админ, дата: 2-05-2013, 16:01, торрент скачан: 359 раз

Понравилась раздача? Посмотрите эти:
  • Тележурнал "Евроголы" / Eurosport [Футбол, 23.12.2013, 400p, H264, RU, WEBR ...
  • Watts Zap / Вот это да! / Смешные моменты в спорте / Эфир от 26.11.2013 / E ...
  • The Masters 2014 / День 8 / Финал / EUROSPORT [снукер, 19.01.2014, IPTVRip] ...
  • Тележурнал "Евроголы" / Eurosport [Футбол, 07.10.2013, 400p, H264, RU, WEBR ...
  • Тележурнал "Евроголы" / Eurosport [Футбол, 23.09.2013, 400p, H264, RU, WEBR ...
  • Лига Европы 2013-2014 / Жеребьевка групповой стадии / EuroSport HD [Футбол, ...
  • Чемпионат Мира 2014 / Отборочный турнир / Обзор Матчей за 07.06.2013 / Euro ...
  • Снукер / Wuxi Classic 2013 / День 7 / Финал / Eurosport [снукер,22.06.2013, ...
  • Товарищеские Матчи 2013 / Обзор Матчей за 14.08.2013 / Eurosport HD [Футбол ...
  • Чемпионат Италии 2012-13 / 36-й тур / Рома — Кьево / НТВ+ [07.05.2013, SD, ...
  • Тележурнал "Евроголы" / Eurosport [футбол.20.05.2013, SD, XviD,WEBRip, RU]
  • Тележурнал "Евроголы" / Eurosport 2 [Футбол, 15.04.2013, 400p, H264, RU, WE ...
  • Тележурнал "Евроголы" / Eurosport [Футбол, 08.04.2013, 400p, Xvid, RU, WEB ...
  • Открытый Чемпионат Китая по снукеру 2013 / China open 2013 / финал / Нил Ро ...
  • Чемпионат Англии 2012-2013 / 31-й тур / Обзор Матчей / Спорт 1 [Футбол, 02. ...
  • Молодежный чемпионат мира 2012 (U-20). Четвертьфинал: Россия - Чехия [02.01 ...
  • Чемпионат Испании 2011-12 / 36-й тур / Реал Мадрид - Севилья / НТВ+ [Футбол ...
  • WSC Real 2009 World Snooker Championship [RePack] (2009) PC
  • Чемпионат Англии 2011-2012 / Championship / 45-й Тур / Обзор Матчей / НТВ+ ...
  • Чемпионат России 2012-2013 / 1-й тур / Алания (Владикавказ) - Спартак (Моск ...
  • Информация
    Посетители, находящиеся в группе Гости, не могут оставлять комментарии к данной публикации.