вход на сайт

Имя пользователя :
Пароль :

Восстановление пароля Регистрация
Roland Garros 2012 / Финал / Новак Джокович (Сербия) - Рафаэль Надаль (Испания) / Djokovic - Nadal / EUROSPORT HD [Теннис, 10.06.2012, SD, XviD, RU, HDTVRip]
Рейтинг:
(голосов: 1)



[img]{THEME}/images/logopost.png[/img]



Roland Garros / French Open 2012

Финал
Вид спорта: Большой теннис
Год выпуска: 10.06.2012
Язык комментариев: Русский
Участники: Новак Джокович (Сербия) - Рафаэль Надаль (Испания)
Описание: Открытый чемпионат Франции по теннису — один из четырёх турниров Большого шлема. В 2012 году состоялось 111-е по счёту соревнование, и второй в нынешнем сезоне турнир Большого Шлема. Турнир прошёл на открытых грунтовых кортах Ролан Гаррос в Париже, Франция. И мужской, и женский турниры прошли с 27 мая по 11 июня 2012 года.
Доп. информация: Некоторые розыгрыши пропущены. Увы, погода ...
Результат матча ▼Новак Джокович (Сербия) - Рафаэль Надаль (Испания) 1:3 (4:6, 3:6, 6:2, 5:7)
Качество: HDTVRip
Продолжительность ▼03:09:34 + 01:19:23
Формат: AVI
Видео кодек: XviD
Аудио кодек: MP3
Свойства видео: 704x400, 25 fps, 1.75 Мbps, 0.24 bit/pixel
Свойства аудио: 48 khz, 2 ch. stereo, 128 kbps
Тех. описание ▼
Format : AVI
Format/Info : Audio Video Interleave
File size : 2.50 GiB
Duration : 3h 9mn
Overall bit rate : 1 886 Kbps

Video
ID : 0
Format : MPEG-4 Visual
Format profile : Advanced [email protected]
Format settings, BVOP : 2
Format settings, QPel : No
Format settings, GMC : No warppoints
Format settings, Matrix : Default (MPEG)
Codec ID : XVID
Codec ID/Hint : XviD
Duration : 3h 9mn
Bit rate : 1 748 Kbps
Width : 704 pixels
Height : 400 pixels
Display aspect ratio : 16:9
Frame rate : 25.000 fps
Color space : YUV
Chroma subsampling : 4:2:0
Bit depth : 8 bits
Scan type : Progressive
Compression mode : Lossy
Bits/(Pixel*Frame) : 0.248
Stream size : 2.31 GiB (93%)
Writing library : XviD 64

Audio
ID : 1
Format : MPEG Audio
Format version : Version 1
Format profile : Layer 3
Mode : Joint stereo
Codec ID : 55
Codec ID/Hint : MP3
Duration : 3h 9mn
Bit rate mode : Constant
Bit rate : 128 Kbps
Channel(s) : 2 channels
Sampling rate : 48.0 KHz
Compression mode : Lossy
Stream size : 174 MiB (7%)
Alignment : Aligned on interleaves
Interleave, duration : 40 ms (1.00 video frame)


Стол заказов POWER | Отзывы | Вступление в POWER
Мои раздачи


ed3d6abbf096ac2d4c2851f787b0e33616df2e85Roland Garros 2012 / Финал / Новак Джокович (Сербия) - Рафаэль Надаль (Испания) / Djokovic - Nadal / EUROSPORT HD [Теннис, 10.06.2012, SD, XviD, RU, HDTVRip] Roland Garros 2012 / Финал / Новак Джокович (Сербия) - Рафаэль Надаль (Испания) / Djokovic - Nadal / EUROSPORT HD [Теннис, 10.06.2012, SD, XviD, RU, HDTVRip] " />

Аплоадер: Админ, дата: 11-06-2012, 23:10, торрент скачан: 359 раз

Понравилась раздача? Посмотрите эти:
  • Australian Open 2014 / Мужчины / Финал / Рафаэль Надаль (Испания) - Станисл ...
  • US Open 2013 / Финал / Новак Джокович (Сербия) - Рафаэль Надаль (Испания) / ...
  • US Open 2013 / Финал / Новак Джокович (Сербия) - Рафаэль Надаль (Испания) / ...
  • US Open 2013 / Финал / Новак Джокович (Сербия) - Рафаэль Надаль (Испания) / ...
  • Wimbledon 2013 / 1/2 Финала / Новак Джокович (Сербия) - Хуан Мартин Дель П ...
  • Roland Garros 2013 / 1-й раунд / Пабло Карреньо-Буста - Роджер Федерер / C. ...
  • Roland Garros 2013 / Гейм, Cет и Матс / Обзор 4-го игрового дня / Eurosport ...
  • Rome 2013 / Финал / Рафаэль Надаль - Роджер Федерер / Rafael Nadal - Roger ...
  • Roland Garros 2012 / 1/2 финала / Петра Квитова (Чехия) - Мария Шарапова (Р ...
  • Wimbledon 2012 / 1/2 финала / Новак Джокович - Роджер Федерер / Novak Djoko ...
  • Wimbledon 2012 / Финал / Роджер Федерер (Швейцария) — Энди Маррей (Великобр ...
  • Олимпиада 2012 / Мужчины / Группа D / 1-й тур / Испания — Япония / НТВ+ [Фу ...
  • Australian Open 2013 / Мужчины / Финал / Новак Джокович (Сербия) - Энди Мар ...
  • Roland Garros 2011 / French Open - Paris / Финал / Рафаэль Надаль – Роджер ...
  • US Open 2011 / New York / 1/2 финала / Новак Джокович (Сербия) - Роджер Фед ...
  • Лига Чемпионов 2011-12 / 1/2 финала / Ответный матч / Барселона (Испания) - ...
  • Roland Garros 2012 / Финал / Сара Эррани (Италия) - Мария Шарапова (Россия) ...
  • Чемпионат Европы 2012 / Финал / Испания - Италия / Россия 1 [Футбол, 01.07. ...
  • Чемпионат Европы 2012 / Финал / Испания — Италия / Футбол [Футбол, 01.07.20 ...
  • US Open 2012 | Финал | Новак Джокович – Энди Маррей | Djokovic - Murray | H ...
  • Информация
    Посетители, находящиеся в группе Гости, не могут оставлять комментарии к данной публикации.