вход на сайт

Имя пользователя :
Пароль :

Восстановление пароля Регистрация
Кубок Англии 2012-2013 / 3-й раунд / Обзор / Воскресенье / ITV Sport [2013 г., футбол, DVDRip]
Рейтинг:
(голосов: 1)



[img]{THEME}/images/logopost.png[/img]



Кубок Англии 2012-2013 / 3-й раунд / Обзор / Воскресенье



Вид спорта: Футбол
Год выпуска: 2013
Комментарий: Профессиональный (многоголосый)
Язык комментариев: Английский

Описание
Обзор воскресных матчей 3-го раунда Кубка Англии

Результат ▼
Суонси Сити - Арсенал 2-2
Мансфилд Таун - Ливерпуль 1 - 2
Mediainfo ▼
Полное имя : 06.01.2013. FA Cup Highlights.mp4
Формат : MPEG-4
Профиль формата : Base Media
Идентификатор кодека : isom
Размер файла : 633 Мбайт
Продолжительность : 46 м.
Общий поток : 1898 Кбит/сек
Дата кодирования : UTC 2013-01-07 00:19:34
Дата пометки : UTC 2013-01-07 00:19:34

Видео
Идентификатор : 1
Формат : AVC
Формат/Информация : Advanced Video Codec
Профиль формата : [email protected]
Параметр CABAC формата : Да
Параметр ReFrames формата : 4 кадра
Идентификатор кодека : avc1
Идентификатор кодека/Информация : Advanced Video Coding
Продолжительность : 46 м.
Битрейт : 1766 Кбит/сек
Ширина : 984 пикселя
Высота : 560 пикселей
Соотношение сторон : 16:9
Соотношение сторон в оригинале : 16:9
Режим частоты кадров : Постоянный
Частота кадров : 25,000 кадров/сек
Цветовое пространство : YUV
Субдискретизация насыщенности : 4:2:0
Битовая глубина : 8 бит
Тип развёртки : Прогрессивная
Бит/(Пиксели*Кадры) : 0.179
Размер потока : 589 Мбайт (93%)
Библиотека кодирования : x264 core 129 r2230 1cffe9f
Настройки программы : cabac=1 / ref=3 / deblock=1:-1:-1 / analyse=0x3:0x113 / me=hex / subme=7 / psy=1 / psy_rd=1.00:0.00 / mixed_ref=1 / me_range=16 / chroma_me=1 / trellis=1 / 8x8dct=1 / cqm=0 / deadzone=21,11 / fast_pskip=1 / chroma_qp_offset=-2 / threads=6 / lookahead_threads=1 / sliced_threads=0 / nr=0 / decimate=1 / interlaced=0 / bluray_compat=0 / constrained_intra=0 / bframes=3 / b_pyramid=2 / b_adapt=1 / b_bias=0 / direct=1 / weightb=1 / open_gop=0 / weightp=2 / keyint=125 / keyint_min=25 / scenecut=40 / intra_refresh=0 / rc_lookahead=40 / rc=crf / mbtree=1 / crf=23.0 / qcomp=0.60 / qpmin=10 / qpmax=51 / qpstep=4 / vbv_maxrate=17500 / vbv_bufsize=14000 / crf_max=0.0 / nal_hrd=none / ip_ratio=1.40 / aq=1:1.00
Дата кодирования : UTC 2013-01-06 23:53:38
Дата пометки : UTC 2013-01-07 00:20:04

Аудио
Идентификатор : 2
Формат : AAC
Формат/Информация : Advanced Audio Codec
Профиль формата : LC
Идентификатор кодека : 40
Продолжительность : 46 м.
Битрейт : 128 Кбит/сек
Каналы : 2 канала
Расположение каналов : Front: L R
Частота : 48,0 КГц
Метод сжатия : С потерями
Задержка видео : 80 мс.
Размер потока : 42,7 Мбайт (7%)
Язык : English

Тех. данные
Качество: DVBRip
Продолжительность: 0:46:36

Формат: Mp4
Видео кодек: H264
Аудио кодек: AAC
Видео: 984x560(1.75:1), 25 fps, ~1766 kbps avg, 0.17 bit/pixel
Аудио: 48 kHz,AAC-LC, 2/0 (L,R) ch, ~124 kbps avg


|Стол заказов|Наши раздачи|Набор в группу|Сказать спасибо|


a5e99262b3bfb5c45cb21ee1a4cf10b3a0eae870Кубок Англии 2012-2013 / 3-й раунд / Обзор / Воскресенье / ITV Sport [2013 г., футбол, DVDRip] Кубок Англии 2012-2013 / 3-й раунд / Обзор / Воскресенье / ITV Sport [2013 г., футбол, DVDRip] " />

Аплоадер: Админ, дата: 7-01-2013, 14:51, торрент скачан: 359 раз

Понравилась раздача? Посмотрите эти:
  • Ariana Grande - ft. Mac Miller / The Way [2013, Pop, WEB-DLRip 1080p]
  • Чемпионат Англии 2012-13 / 28 тур / Тоттенхэм - Арсенал / Спорт 1 [Футбол, ...
  • Чемпионат Италии 2012-13 / 26-й тур / Обзор матчей / НТВ+ [Футбол, 26.02.20 ...
  • Чемпионат Англии 2012-2013 / 24-й тур / Арсенал - Ливерпуль / Футбол (UA) [ ...
  • Чемпионат Англии 2012-2013 / 25-й тур / Обзор / Суббота / BBC Sport [2013 г ...
  • Чемпионат Англии 2012-2013 / 25-й тур / Обзор / Воскресенье / BBC Sport [20 ...
  • Кубок Англии 2012-13 / 1/8 финала / Манчестер Юнайтед - Рединг / Спорт 1[Фу ...
  • Чемпионат Мира 2014 | Отборочный турнир | Европа | World Cup Qualifiers - H ...
  • Чемпионат Англии 2012-13 | 4-й тур | Обзор матчей воскресенья | Match Of Th ...
  • Чемпионат Англии 2012-13 / 4-й тур / Обзор матчей / Спорт1 [Футбол, 17.09.2 ...
  • Чемпионат Англии 2012-2013 | 5-й тур | Обзор Матчей | Спорт 1 [Футбол, 24.0 ...
  • Чемпионат Англии 2012-2013 / 14-й тур / Обзор / Среда / BBC Sport [2012 г., ...
  • Чемпионат Англии 2012-2013 / 18-й тур / Обзор / Суббота / BBC Sport [2012 г ...
  • Чемпионат Англии 2012-2013 / 18-й тур / Челси - Астон Вилла / Спорт 1 [23.1 ...
  • Чемпионат Англии 2012-2013 / 19-й тур / Обзор / Среда / BBC Sport [2012 г., ...
  • Чемпионат Англии 2012-13 / 19-й тур / Обзор матчей / Match Of The Day / ВВС ...
  • Чемпионат Англии 2012-2013 / 23-й тур / Обзор / Суббота / BBC Sport [2013 г ...
  • Чемпионат Англии 2012-2013 / 22-й тур / Обзор / Суббота / BBC Sport [2013 г ...
  • Чемпионат Англии 2012-2013 / 20-й тур / Обзор / Воскресенье / BBC Sport [20 ...
  • Чемпионат Англии 2012-2013 / 21-й тур / Обзор / Вторник / BBC Sport [2013 г ...
  • Чемпионат Англии 2012-2013 / 21-й тур / Обзор / Среда / BBC Sport [2013 г., ...
  • Кубок Англии 2012-2013 / 3-й раунд / Обзор / Суббота / ITV 1 HD [2013 г., ф ...
  • Чемпионат Англии 2012-13 | 4-й тур | Обзор матчей субботы | Match Of The Da ...
  • Чемпионат Англии 2012-13 / 6-й тур / Обзор матчей / Спорт1 [Футбол, 01.10.2 ...
  • Чемпионат Англии 2012-2013 / 13-й тур / Обзор / Суббота / BBC Sport [2012 г ...
  • Информация
    Посетители, находящиеся в группе Гости, не могут оставлять комментарии к данной публикации.