вход на сайт

Имя пользователя :
Пароль :

Восстановление пароля Регистрация
Чемпионат Англии 2012-2013 / 18-й тур / Челси - Астон Вилла / Спорт 1 [23.12.2012 г., футбол, IPTVRip]
Рейтинг:
(голосов: 1)



[img]{THEME}/images/logopost.png[/img]



Чемпионат Англии 2012-2013 / 18-й тур / Челси - Астон Вилла





Вид спорта: Футбол
Год выпуска: 2012
Комментарий: Профессиональный (одноголосый)
Язык комментариев: русский

составы ▼


Описание
Стэмфорд Бридж, 23.12.2012 г., Челси встречается с футбольным клубом Астон Вилла

Результат ▼
8-0

"Mediainfo" ▼
Формат : MPEG-4
Профиль формата : Base Media
Идентификатор кодека : isom
Размер файла : 429 Мбайт
Продолжительность : 50 м.
Общий поток : 1196 Кбит/сек
Дата кодирования : UTC 2012-12-23 17:47:26
Дата пометки : UTC 2012-12-23 17:47:26
Программа кодирования : vlc 2.0.4 stream output

Видео
Идентификатор : 2
Формат : AVC
Формат/Информация : Advanced Video Codec
Профиль формата : [email protected]
Параметр CABAC формата : Да
Параметр ReFrames формата : 4 кадра
Идентификатор кодека : avc1
Идентификатор кодека/Информация : Advanced Video Coding
Продолжительность : 50 м.
Продолжительность оригинала : 50 м.
Битрейт : 999 Кбит/сек
Ширина : 704 пикселя
Высота : 400 пикселей
Соотношение сторон : 16:9
Частота кадров : 25,000 кадров/секЦветовое пространство : YUV
Субдискретизация насыщенности : 4:2:0
Битовая глубина : 8 бит
Тип развёртки : Прогрессивная
Бит/(Пиксели*Кадры) : 0.142
Размер потока : 358 Мбайт (83%)
Размер потока оригинала : 358 Мбайт (83%)
Язык : English
Дата кодирования : UTC 2012-12-23 17:47:26
Дата пометки : UTC 2012-12-23 17:47:26
mdhd_Duration : 3008000

Аудио
Идентификатор : 1
Формат : MPEG Audio
Версия формата : Version 1
Профиль формата : Layer 2
Идентификатор кодека : 6B
Продолжительность : 50 м.
Продолжительность оригинала : 50 м.
Вид битрейта : Постоянный
Битрейт : 192 Кбит/сек
Каналы : 2 канала
Частота : 48,0 КГц
Метод сжатия : С потерями
Размер потока : 68,9 Мбайт (16%)
Размер потока оригинала : 68,9 Мбайт (16%)
Язык : English
Дата кодирования : UTC 2012-12-23 17:47:26
Дата пометки : UTC 2012-12-23 17:47:26
mdhd_Duration : 3009384

Тех. данные
Качество: IPTVRip
Продолжительность: 00:50:09 + 00:49:58

Формат: Mp4
Видео кодек: H264
Аудио кодек: MP23
Видео: 704x400 (1.76:1), 25 fps, ~999 kbps avg, 0.26 bit/pixel
Аудио: 48 kHz, MPEG Layer 2, 2 ch, ~192.00 kbps avg


|Стол заказов|Наши раздачи|Набор в группу|Сказать спасибо|


0525a9e1f75715608b5590cc7973b1451fde7926Чемпионат Англии 2012-2013 / 18-й тур / Челси - Астон Вилла / Спорт 1 [23.12.2012 г., футбол, IPTVRip] Чемпионат Англии 2012-2013 / 18-й тур / Челси - Астон Вилла / Спорт 1 [23.12.2012 г., футбол, IPTVRip] " />

Аплоадер: Админ, дата: 24-12-2012, 00:57, торрент скачан: 359 раз

Понравилась раздача? Посмотрите эти:
  • Чемпионат Англии 2013-14 / 2-й тур / Астон Вилла - Ливерпуль / Спорт HD [Фу ...
  • Чемпионат Англии 2013-2014 / 3-й тур / Челси – Астон Вилла / НТВ+ [Футбол, ...
  • Чемпионат Англии 2013-14 / Премьер-лига / 3-й тур / Челси - Астон Вилла / Н ...
  • Чемпионат Англии 2012-2013 / 37 тур / Астон Вилла - Челси / Спорт 1HD [футб ...
  • Чемпионат Англии 2012-2013 / 34-й тур / Ливерпуль - Челси / Спорт 1 HD [Фут ...
  • Чемпионат Англии 2012-13 / 34 тур / Манчестер Юнайтед - Астон Вилла / Спорт ...
  • Чемпионат Англии 2012-13 / 35-й тур / Астон Вилла - Сандерленд / Спорт 1 [2 ...
  • Чемпионат Англии 2012-13 / 31 тур / Астон Вилла - Ливерпуль / Спорт1 [31.03 ...
  • Чемпионат Англии 2012-13 / 28 тур / Тоттенхэм - Арсенал / Спорт 1 [Футбол, ...
  • Чемпионат Англии 2012-13 / 4-й тур / Обзор матчей / Спорт1 [Футбол, 17.09.2 ...
  • Чемпионат Англии 2012-2013 | 5-й тур | Обзор Матчей | Спорт 1 [Футбол, 24.0 ...
  • Чемпионат Англии 2012-13 / 17 тур / Ливерпуль – Астон Вилла / Спорт 1 [футб ...
  • Чемпионат Англии 2012-13 / 18-й тур / Челси – Астон Вилла / Спорт 1 [Футбол ...
  • Чемпионат Англии 2012-13 / 18-й тур / Челси – Астон Вилла / Спорт 1 [футбол ...
  • Чемпионат Англии 2012-13 / 19 тур / Манчестер Юнайтед - Ньюкасл Юнайтед / ...
  • Кубок Англии 2012-2013 / 3-й раунд / Обзор / Воскресенье / ITV Sport [2013 ...
  • Чемпионат Англии 2011-12 / 31 тур / Астон Вилла - Челси / Спорт 1 [31.03.20 ...
  • Чемпионат Англии 2012-13 | 4-й тур | Обзор матчей субботы | Match Of The Da ...
  • Чемпионат Англии 2012-2013 / 8-й тур / Тоттенхэм Хотспур - Челси / Спорт 1 ...
  • Чемпионат Англии 2012-2013 / 13-й тур / Астон Вилла – Арсенал / Россия 2 [ф ...
  • Информация
    Посетители, находящиеся в группе Гости, не могут оставлять комментарии к данной публикации.