вход на сайт

Имя пользователя :
Пароль :

Восстановление пароля Регистрация
Chelsea - Season Review 2011-12 / Челси - Обзор Сезона 2011-12 [ Футбол, 2012, SD, H.264, EN, DVDRip]
Рейтинг:
(голосов: 1)



[img]{THEME}/images/logopost.png[/img]




Chelsea - Season Review 2011-12 / Челси - Обзор Сезона 2011-12

Вид спорта:: Футбол
Год выпуска: 2012
Язык комментариев: Английский
Участники:Футболисты Челси и др. клубов
Описание: Все игры, все голы, эксклюзивные интервью, в обзоре сезона Челси образца 2011-2012 годов.

Качество: DVDRip
Продолжительность: ▼01:57:40
Формат: MKV
Видео кодек:H.264
Аудио кодек: H.264
Свойства видео: H.264, 720 x 400(16:9), 25 fps, 2735 kbps.
Свойства аудио: AC3, 48.0 kHz 2 ch, 192 kbps
"Тех.Данные:" ▼Format : Matroska
Format version : Version 2
File size : 2.25 GiB
Duration : 1h 57mn
Overall bit rate : 2 735 Kbps
Encoded date : UTC 2012-07-19 13:47:27
Writing application : mkvmerge v5.5.0 (Healer) built on Apr 6 2012 21:43:24
Writing library : libebml v1.2.3 + libmatroska v1.3.0

Video
ID : 1
Format : AVC
Format/Info : Advanced Video Codec
Format profile : High_L4.1
Format settings, CABAC : Yes
Format settings, ReFrames : 9 frames
Codec ID : V_MPEG4/ISO/AVC
Duration : 1h 57mn
Bit rate : 2 457 Kbps
Width : 720 pixels
Height : 400 pixels
Display aspect ratio : 16:9
Frame rate : 25.000 fps
Color space : YUV
Chroma subsampling : 4:2:0
Bit depth : 8 bits
Scan type : Progressive
Bits/(Pixel*Frame) : 0.341
Stream size : 2.02 GiB (90%)
Writing library : x264 core 125 r2200 999b753
Encoding settings : cabac=1 / ref=9 / deblock=1:0:0 / analyse=0x3:0x133 / me=umh / subme=9 / psy=1 / psy_rd=1.00:0.00 / mixed_ref=1 / me_range=16 / chroma_me=1 / trellis=2 / 8x8dct=1 / cqm=0 / deadzone=21,11 / fast_pskip=1 / chroma_qp_offset=-2 / threads=6 / lookahead_threads=1 / sliced_threads=0 / nr=0 / decimate=1 / interlaced=0 / bluray_compat=0 / constrained_intra=0 / bframes=3 / b_pyramid=2 / b_adapt=2 / b_bias=0 / direct=3 / weightb=1 / open_gop=0 / weightp=2 / keyint=250 / keyint_min=25 / scenecut=40 / intra_refresh=0 / rc_lookahead=60 / rc=crf / mbtree=1 / crf=20.0 / qcomp=0.60 / qpmin=0 / qpmax=69 / qpstep=4 / ip_ratio=1.40 / aq=1:1.00
Language : English
Default : Yes
Forced : No

Audio
ID : 2
Format : AC-3
Format/Info : Audio Coding 3
Mode extension : CM (complete main)
Format settings, Endianness : Big
Codec ID : A_AC3
Duration : 1h 57mn
Bit rate mode : Constant
Bit rate : 224 Kbps
Channel(s) : 2 channels
Channel positions : Front: L R
Sampling rate : 48.0 KHz
Bit depth : 16 bits
Compression mode : Lossy
Stream size : 189 MiB (8%)
Language : English
Default : Yes
Forced : No


48838b06935177e98e61e309e3ded75ed2fc24c8Chelsea - Season Review 2011-12 / Челси - Обзор Сезона 2011-12 [ Футбол, 2012, SD, H.264, EN, DVDRip] Chelsea - Season Review 2011-12 / Челси - Обзор Сезона 2011-12 [ Футбол, 2012, SD, H.264, EN, DVDRip] " />

Аплоадер: Админ, дата: 19-07-2012, 21:54, торрент скачан: 359 раз

Понравилась раздача? Посмотрите эти:
  • Чемпионат Англии 2013-2014 / Английский акцент / Обзор 17 тура / НТВ+ [футб ...
  • Чемпионат Англии 2013-2014 / 22-й тур / Обзор / Match of the day / BBC One ...
  • FLO / NRG [2012, Pop, Dance, MasterRip]
  • Arsenal - Season Review 2012-13 / Арсенал - Обзор сезона 2012-13 [Футбол, 2 ...
  • Chelsea - Season Review 2012-13 / Челси - Обзор Сезона 2012-13 [Футбол, 201 ...
  • Обзор матчей Ливерпуля сезона 2012-13 / Liverpool season review 2012-13 [фу ...
  • Чемпионат Франции 2013-2014 / 1-й тур / Обзор Матчей / Спорт 1 [12.08.2013, ...
  • Чемпионат Испании 2012-13 / 34-й тур / Обзор Тура / НТВ+ [06.05.2013, 720p, ...
  • Чемпионат Англии 2012-2013 / 33-й тур / Челси - Тоттенхэм / Спорт 1 [Футбол ...
  • Кубок Англии 2012-2013 / Превью финала / Спорт 1 [Футбол, 09.05.2013, 720p, ...
  • UFC - Best Of 2012 Year In Review[MMA,2013, BDRip 540p]
  • Liverpool - Season Review 2010-11 / Ливерпуль - Обзор Сезона 2010-11 [2011 ...
  • Арсенал - Обзор сезона 2010-2011 / Arsenal - Season Review 2010-2011 [Футбо ...
  • Лига Чемпионов 2011-12 / 1/2 финала / Ответный матч / Барселона (Испания) - ...
  • Футбольный клуб / Чемпионат Европы 2012 / НТВ+ [Футбол, 08.06.2012, HDTVRip ...
  • Чемпионат Европы 2012 / 1/4 финала / Чехия - Португалия / Спорт 1 HD [Футбо ...
  • Чемпионат Европы 2012 / 1/2 финала / Португалия - Испания / Спорт 1 HD [Фу ...
  • Чемпионат Европы 2012 / 1/2 финала / Германия - Италия / Спорт 1 HD [Футбо ...
  • Все голы Евро-2012 [Футбол,2012, HDTVRip]
  • Арсенал / Обзор сезона 2011/2012 [футбол, 2012, DVDRip]
  • Чемпионат Англии 2012-2013 / 12-й тур / Обзор / Суббота / BBC Sport [2012 г ...
  • Mylene Farmer / Du Temps [2011, Pop, HDTVRip]
  • Mylene Farmer / Bleu Noir [2011, Pop, HDTVRip]
  • Лига Чемпионов 2011-12 / 1/2 финала / Первый матч / Челси (Англия) - Барсел ...
  • Ливерпуль / Обзор сезона 2011/2012 [футбол, 2012, DVDRip]
  • Информация
    Посетители, находящиеся в группе Гости, не могут оставлять комментарии к данной публикации.