вход на сайт

Имя пользователя :
Пароль :

Восстановление пароля Регистрация
Чемпионат Европы 2012 / 1/2 финала / Португалия - Испания / Спорт 1 HD [Футбол,27.06.2012, HDTVRip/720p, RU]
Рейтинг:
(голосов: 1)



[img]{THEME}/images/logopost.png[/img]



Чемпионат Европы 2012. 1/2 финала

Вид спорта: Футбол
Год выпуска: 27.06.2012
Язык комментариев: Русский (Владимир Стогниенко)
Участники: Португалия - Испания
Описание: МатчЧемпионата Европы по футболу 2012Составы команд ▼



Качество: HDTVRip
Продолжительность ▼00:49:25 + 02:00:27
Формат: MKV
Видео кодек: AVC
Аудио кодек: AC3
Свойства видео: 1280x720, 25fps, 3000kbps
Свойства аудио: 48 kHz, 2ch, 128 kbps
Тех. данные ▼Format : Matroska
Format version : Version 1
File size : 3.46 GiB
Duration : 2h 37mn
Overall bit rate : 3 144 Kbps
Encoded date : UTC 2012-06-27 21:41:50
Writing application : mkvmerge v2.1.0 (Another Place To Fall) built on Aug 19 2007 13:40:07
Writing library : libebml v0.7.7 + libmatroska v0.8.1

Video
ID : 1
Format : AVC
Format/Info : Advanced Video Codec
Format profile : [email protected]
Format settings, CABAC : Yes
Format settings, ReFrames : 4 frames
Codec ID : V_MPEG4/ISO/AVC
Duration : 2h 37mn
Bit rate : 3 000 Kbps
Width : 1 280 pixels
Height : 720 pixels
Display aspect ratio : 16:9
Frame rate : 25.000 fps
Color space : YUV
Chroma subsampling : 4:2:0
Bit depth : 8 bits
Scan type : Progressive
Bits/(Pixel*Frame) : 0.130
Stream size : 3.25 GiB (94%)
Writing library : x264 core 125 r2200 999b753
Encoding settings : cabac=1 / ref=2 / deblock=1:0:0 / analyse=0x3:0x113 / me=hex / subme=4 / psy=1 / psy_rd=1.00:0.00 / mixed_ref=0 / me_range=16 / chroma_me=1 / trellis=1 / 8x8dct=1 / cqm=0 / deadzone=21,11 / fast_pskip=1 / chroma_qp_offset=0 / threads=6 / lookahead_threads=1 / sliced_threads=0 / nr=0 / decimate=1 / interlaced=0 / bluray_compat=0 / constrained_intra=0 / bframes=3 / b_pyramid=2 / b_adapt=1 / b_bias=0 / direct=1 / weightb=1 / open_gop=0 / weightp=1 / keyint=250 / keyint_min=25 / scenecut=40 / intra_refresh=0 / rc_lookahead=20 / rc=abr / mbtree=1 / bitrate=3000 / ratetol=1.0 / qcomp=0.60 / qpmin=10 / qpmax=51 / qpstep=4 / ip_ratio=1.40 / aq=1:1.00
Language : English
Default : Yes
Forced : No

Audio
ID : 2
Format : AC-3
Format/Info : Audio Coding 3
Mode extension : CM (complete main)
Codec ID : A_AC3
Duration : 2h 37mn
Bit rate mode : Constant
Bit rate : 128 Kbps
Channel(s) : 2 channels
Channel positions : Front: L R
Sampling rate : 48.0 KHz
Bit depth : 16 bits
Compression mode : Lossy
Stream size : 144 MiB (4%)
Default : Yes
Forced : No

Стол заказов POWER | Отзывы | Вступление в POWER
Мои раздачи


ea459e9d820847114b861d616c5e8a7285eb8a06Чемпионат Европы 2012 / 1/2 финала / Португалия - Испания / Спорт 1 HD [Футбол,27.06.2012, HDTVRip/720p, RU] Чемпионат Европы 2012 / 1/2 финала / Португалия - Испания / Спорт 1 HD [Футбол,27.06.2012, HDTVRip/720p, RU] " />

Аплоадер: Админ, дата: 28-06-2012, 04:35, торрент скачан: 359 раз

Понравилась раздача? Посмотрите эти:
  • Чемпионат Франции 2013-2014 / 1-й тур / Обзор Матчей / Спорт 1 [12.08.2013, ...
  • Чемпионат Испании 2012-13 / 34-й тур / Обзор Тура / НТВ+ [06.05.2013, 720p, ...
  • Чемпионат Англии 2012-2013 / 33-й тур / Челси - Тоттенхэм / Спорт 1 [Футбол ...
  • Кубок Англии 2012-2013 / Превью финала / Спорт 1 [Футбол, 09.05.2013, 720p, ...
  • Чемпионат Англии 2012-2013 / 38 тур / Ньюкасл Юнайтед - Арсенал / Спорт 1 H ...
  • Лига Чемпионов 2012-13 / 1/8 финала / Первый матч / Реал М - Манчестер Юнай ...
  • Лига Чемпионов 2011-12 / 1/2 финала / Ответный матч / Барселона (Испания) - ...
  • Футбольный клуб / Чемпионат Европы 2012 / НТВ+ [Футбол, 08.06.2012, HDTVRip ...
  • Чемпионат Европы 2012 / Группа C / 1-й тур / Ирландия — Хорватия / Спорт 1 ...
  • Чемпионат Европы 2012 / 1/4 финала / Чехия - Португалия / Россия 1 [21.06.2 ...
  • Чемпионат Европы 2012 / 1/4 финала / Чехия - Португалия / Спорт 1 HD [Футбо ...
  • Чемпионат Европы 2012 / 1/4 финала / Англия - Италия / Спорт 1 HD [Футбол, ...
  • Чемпионат Европы 2012 / 1/2 финала / Германия - Италия / Спорт 1 HD [Футбо ...
  • Чемпионат Европы 2012 / Финал / Испания - Италия / Спорт 1 HD [Футбол, 01. ...
  • Все голы Евро-2012 [Футбол,2012, HDTVRip]
  • Чемпионат Европы 2012 / Финал / Испания- Италия / Спорт 1 HD [ФФутбол, 01.0 ...
  • Лига Чемпионов 2011-12 / 1/2 финала / Первый матч / Челси (Англия) - Барсел ...
  • Лига Чемпионов 2011-12 / 1/2 финала / Ответный матч / Реал (Испания) - Бава ...
  • Чемпионат Европы 2012 / Группа B / 1-й тур / Германия - Португалия / Спорт ...
  • Чемпионат Европы 2012 / Группа B / 3-й тур / Португалия - Нидерланды / Спор ...
  • Чемпионат Европы 2012 / 1/4 Финала / Чехия — Португалия / Футбол [Футбол, 2 ...
  • Чемпионат Европы 2012 / 1/2 финала / Португалия - Испания / Спорт 1 HD [Фут ...
  • Чемпионат Испании 2012-13 / Тур 14 / Реал М - Атлетико М [футбол, 02.12.201 ...
  • Английская Премьер-Лига 2012-13 / Тур 15 / Рединг - Манчестер Юнайтед [футб ...
  • Чемпионат Испании 2012-13 / Тур 14 / Барселона - Атлетик Б [футбол, 02.12.2 ...
  • Информация
    Посетители, находящиеся в группе Гости, не могут оставлять комментарии к данной публикации.