вход на сайт

Имя пользователя :
Пароль :

Восстановление пароля Регистрация
Чемпионат Европы 2012 / Группа D / 1-й тур / Украина - Швеция / Спорт 1 [11.06.2012 г., SD, XviD, RU, SAT]
Рейтинг:
(голосов: 1)



[img]{THEME}/images/logopost.png[/img]



Чемпионат Европы 2012
Группа D
1-й тур



Вид спорта: Футбол
Год выпуска: 11.06.2012
Язык комментариев: Русский (Владимир Стогниенко )
Участники: Украина - Швеция
Описание: МатчЧемпионата Европы по футболу 2012
Качество: SATRip
Продолжительность ▼00:33:22+01:56:28+00:55:12
Формат: AVI
Видео кодек: XviD
Аудио кодек: MP3
Свойства видео: 704x400 (16:9), 25.000 fps, 1700 kbps
Свойства аудио: 48 kHz, MPEG Layer 3, 2 ch, 128.00 kbps, CBR
Тех. данные ▼Format : AVI
Format/Info : Audio Video Interleave
File size : 742 MiB
Duration : 56mn 28s
Overall bit rate : 1 838 Kbps
Writing application : VirtualDubMod 1.5.10.3 | www.virtualdub-fr.org || (build 2550/release)
Writing library : VirtualDubMod build 2550/release

Video
ID : 0
Format : MPEG-4 Visual
Format profile : Advanced [email protected]
Format settings, BVOP : 2
Format settings, QPel : No
Format settings, GMC : No warppoints
Format settings, Matrix : Default (H.263)
Codec ID : XVID
Codec ID/Hint : XviD
Duration : 56mn 28s
Bit rate : 1 700 Kbps
Width : 704 pixels
Height : 400 pixels
Display aspect ratio : 16:9
Frame rate : 25.000 fps
Color space : YUV
Chroma subsampling : 4:2:0
Bit depth : 8 bits
Scan type : Progressive
Compression mode : Lossy
Bits/(Pixel*Frame) : 0.241
Stream size : 687 MiB (93%)
Writing library : XviD 1.2.1 (UTC 2008-12-04)

Audio
ID : 1
Format : MPEG Audio
Format version : Version 1
Format profile : Layer 3
Codec ID : 55
Codec ID/Hint : MP3
Duration : 56mn 28s
Bit rate mode : Constant
Bit rate : 128 Kbps
Channel(s) : 2 channels
Sampling rate : 48.0 KHz
Compression mode : Lossy
Stream size : 51.7 MiB (7%)
Alignment : Aligned on interleaves
Interleave, duration : 40 ms (1.00 video frame)
Interleave, preload duration : 504 ms
Writing library : LAME3.98r
Encoding settings : -m s -V 4 -q 2 -lowpass 17 -b 128


Стол заказов POWER | Отзывы | Вступление в POWER
Мои раздачи


baecf442b77feada38d24a31f1d2c8c0f7e5c821Чемпионат Европы 2012 / Группа D / 1-й тур / Украина - Швеция / Спорт 1 [11.06.2012 г., SD, XviD, RU, SAT] Чемпионат Европы 2012 / Группа D / 1-й тур / Украина - Швеция / Спорт 1 [11.06.2012 г., SD, XviD, RU, SAT] " />

Аплоадер: Админ, дата: 12-06-2012, 03:20, торрент скачан: 359 раз

Понравилась раздача? Посмотрите эти:
  • Чемпионат Англии 2011-12 / 36 тур / Челси - Куинз Парк Рейнджерс / Спорт 1 ...
  • Чемпионат Европы 2012 / Группа C / 1-й тур / Испания - Италия / Россия 1 [Ф ...
  • Чемпионат Европы 2012 / Группа C / 1-й тур / Ирландия — Хорватия / Спорт 1 ...
  • Чемпионат Европы 2012 / Группа C / 1-й тур / Ирландия — Хорватия / ТРК Футб ...
  • Чемпионат Европы 2012 / Группа C / 3-й тур / Италия - Ирландия / Первый кан ...
  • Чемпионат Мира 2014 | Отборочный турнир | Европа | Группа H | Англия - Укра ...
  • Лига Европы 2012-13 / 6-й тур / Группа H / Интер (Италия) — Нефтчи (Азербай ...
  • Чемпионат Англии 2011-12 / 31 тур / Ньюкасл - Ливерпуль / Спорт 1 [Футбол, ...
  • Чемпионат Англии 2011-12 / 32 тур / Арсенал - Манчестер Сити / Спорт 1 [Фут ...
  • Чемпионат Англии 2011-12 / 32-й тур / Обзор тура / Спорт 1 [Футбол, 10.04.2 ...
  • Чемпионат Англии 2011-12 / 35 тур / Манчестер Юнайтед - Эвертон / Спорт 1 [ ...
  • Чемпионат Англии 2011-12 / 37-й тур / Манчестер Юнайтед - Суонси Сити / Спо ...
  • Чемпионат Европы 2012 / Группа B / 1-й тур / Германия - Португалия / Спорт ...
  • Чемпионат Европы. Группа D. Швеция - Англия / EURO-2012. Group D. Sweden - ...
  • Чемпионат Европы 2012 / 1/4 Финала / Чехия — Португалия / Футбол [Футбол, 2 ...
  • Чемпионат Европы 2012 / Финал / Испания - Италия / Россия 1 [Футбол, 01.07. ...
  • Чемпионат Европы 2012 / Финал / Испания — Италия / Футбол [Футбол, 01.07.20 ...
  • Чемпионат России 2012-13 / 1-й тур / Мордовия - Локомотив / НТВ+ [Футбол, 2 ...
  • Лига Европы 2012-13 / 5-й тур / Группа А / Анжи (Россия) - Удинезе (Италия) ...
  • Лига Европы 2012-13 / 5-й тур / Группа А / Ливерпуль (Англия) - Янг Бойз (Ш ...
  • Информация
    Посетители, находящиеся в группе Гости, не могут оставлять комментарии к данной публикации.