вход на сайт

Имя пользователя :
Пароль :

Восстановление пароля Регистрация
Чемпионат Европы 2012 / Группа C / 1-й тур / Ирландия — Хорватия / ТРК Футбол [Футбол, 10.06.2012, SD, XviD, RU, DVB]
Рейтинг:
(голосов: 1)



[img]{THEME}/images/logopost.png[/img]



Чемпионат Европы 2012
Группа Б
1-й тур



Вид спорта: Футбол
Год выпуска: 10.06.2012
Язык комментариев: Русский (Юрий Розанов)
Участники: Ирландия — Хорватия
Описание: МатчЧемпионата Европы по футболу 2012
Качество: DVBRip
Продолжительность ▼01:00:21 + 00:53:19
Формат: AVI
Видео кодек: XviD
Аудио кодек: MP3
Свойства видео: 704x400 (16/9), 25,000fps, 1800 Kbps
Свойства аудио: 48 kHz, MPEG Layer 3, 2 ch, 128.00 kbps, CBR
Тех. данные ▼Format : AVI
Format/Info : Audio Video Interleave
File size : 836 MiB
Duration : 1h 0mn
Overall bit rate : 1 937 Kbps
Writing library : VirtualDub build 34807/release

Video
ID : 0
Format : MPEG-4 Visual
Format profile : Advanced [email protected]
Format settings, BVOP : 2
Format settings, QPel : No
Format settings, GMC : No warppoints
Format settings, Matrix : Default (MPEG)
Codec ID : XVID
Codec ID/Hint : XviD
Duration : 1h 0mn
Bit rate : 1 800 Kbps
Width : 704 pixels
Height : 400 pixels
Display aspect ratio : 16:9
Frame rate : 25.000 fps
Color space : YUV
Chroma subsampling : 4:2:0
Bit depth : 8 bits
Scan type : Progressive
Compression mode : Lossy
Bits/(Pixel*Frame) : 0.256
Stream size : 777 MiB (93%)
Writing library : XviD 1.2.1 (UTC 2008-12-04)

Audio
ID : 1
Format : MPEG Audio
Format version : Version 1
Format profile : Layer 3
Mode : Joint stereo
Mode extension : MS Stereo
Codec ID : 55
Codec ID/Hint : MP3
Duration : 1h 0mn
Bit rate mode : Constant
Bit rate : 128 Kbps
Channel(s) : 2 channels
Sampling rate : 48.0 KHz
Compression mode : Lossy
Stream size : 55.3 MiB (7%)
Alignment : Split accross interleaves
Interleave, duration : 40 ms (1.00 video frame)
Interleave, preload duration : 500 ms


Стол заказов POWER | Отзывы | Вступление в POWER
Мои раздачи


9437c204947e8b218b7a6e3d746a5c81079e410fЧемпионат Европы 2012 / Группа C / 1-й тур / Ирландия — Хорватия / ТРК Футбол [Футбол, 10.06.2012, SD, XviD, RU, DVB] Чемпионат Европы 2012 / Группа C / 1-й тур / Ирландия — Хорватия / ТРК Футбол [Футбол, 10.06.2012, SD, XviD, RU, DVB] " />

Аплоадер: Админ, дата: 11-06-2012, 09:43, торрент скачан: 359 раз

Понравилась раздача? Посмотрите эти:
  • Чемпионат Германии 2011-12 / 28-й тур / Боруссия Д - Штутгарт / НТВ+ [Футбо ...
  • Чемпионат Европы 2012 / Группа C / 1-й тур / Испания - Италия / Россия 1 [Ф ...
  • Чемпионат Европы 2012 / Группа C / 1-й тур / Ирландия — Хорватия / Спорт 1 ...
  • Чемпионат Европы 2012 / Группа D / 1-й тур / Украина - Швеция / Спорт 1 [11 ...
  • Чемпионат Европы 2012 / Группа C / 3-й тур / Италия - Ирландия / Первый кан ...
  • Чемпионат Европы 2012 / 1/4 финала / Чехия - Португалия / Россия 1 [21.06.2 ...
  • Олимпиада 2012 / Мужчины / Группа D / 1-й тур / Испания — Япония / НТВ+ [Фу ...
  • Олимпиада 2012 / Футбол / Мужчины / Группа A / 3-й тур / Великобритания - У ...
  • Чемпионат Англии 2012-13 / 11-й тур / Челси - Ливерпуль / Футбол [Футбол, 1 ...
  • Лига Европы 2012-13 / 6-й тур / Группа H / Интер (Италия) — Нефтчи (Азербай ...
  • Чемпионат Италии 2012-13 / 16-й тур / Интер — Наполи / НТВ+ [Футбол, 09.12. ...
  • Чемпионат Англии 2011-2012 / Championship / 45-й Тур / Обзор Матчей / НТВ+ ...
  • Чемпионат Европы 2012 / Группа B / 1-й тур / Германия - Португалия / Спорт ...
  • Чемпионат Европы 2012 / Группа C / 3-й тур / Хорватия - Испания / ZDF [Футб ...
  • Чемпионат Европы 2012 / 1/4 Финала / Чехия — Португалия / Футбол [Футбол, 2 ...
  • Чемпионат Европы 2012 / Финал / Испания - Италия / Россия 1 [Футбол, 01.07. ...
  • Чемпионат Европы 2012 / Финал / Испания — Италия / Футбол [Футбол, 01.07.20 ...
  • Чемпионат России 2012-13 / 1-й тур / Мордовия - Локомотив / НТВ+ [Футбол, 2 ...
  • Лига Европы 2012-13 / 5-й тур / Группа А / Анжи (Россия) - Удинезе (Италия) ...
  • Лига Европы 2012-13 / 5-й тур / Группа А / Ливерпуль (Англия) - Янг Бойз (Ш ...
  • Информация
    Посетители, находящиеся в группе Гости, не могут оставлять комментарии к данной публикации.