вход на сайт

Имя пользователя :
Пароль :

Восстановление пароля Регистрация
Чемпионат Испании 2011-12 / 36-й тур / Реал Мадрид - Севилья / НТВ+ [Футбол, 29.04.2012, SATRip]
Рейтинг:
(голосов: 1)



[img]{THEME}/images/logopost.png[/img]



Чемпионат Испании 2011-12
36-й тур

Вид спорта: Футбол
Год выпуска: 29.04.2012
Язык комментариев: Русский (Батурин)
Участники: Реал Мадрид - Севилья
Описание: Чемпионат Испании 2011-12, 36-й тур
Составы команд ▼
Качество: SATRip
Продолжительность ▼00:50:15+00:49:41
Формат: AVI
Видео кодек: XviD
Аудио кодек: MP3
Свойства видео: 704x400, 25fps, 1800kbps
Свойства аудио: MPEG Audio Layer 3, 48KHz, 2ch stereo, 128 kbps
Тех. описание ▼Format : AVI
Format/Info : Audio Video Interleave
File size : 688 MiB
Duration : 49mn 41s
Overall bit rate : 1 935 Kbps
Writing library : TMPGEnc 4.0 XPress Version. 4.7.7.307

Video
ID : 0
Format : MPEG-4 Visual
Format profile : Advanced [email protected]
Format settings, BVOP : 2
Format settings, QPel : No
Format settings, GMC : No warppoints
Format settings, Matrix : Default (MPEG)
Muxing mode : Packed bitstream
Codec ID : XVID
Codec ID/Hint : XviD
Duration : 49mn 41s
Bit rate : 1 799 Kbps
Width : 704 pixels
Height : 400 pixels
Display aspect ratio : 16:9
Frame rate : 25.000 fps
Color space : YUV
Chroma subsampling : 4:2:0
Bit depth : 8 bits
Scan type : Progressive
Compression mode : Lossy
Bits/(Pixel*Frame) : 0.256
Stream size : 640 MiB (93%)
Writing library : XviD 1.2.1 (UTC 2008-12-04)

Audio
ID : 1
Format : MPEG Audio
Format version : Version 1
Format profile : Layer 3
Mode : Joint stereo
Mode extension : MS Stereo
Codec ID : 55
Codec ID/Hint : MP3
Duration : 49mn 41s
Bit rate mode : Constant
Bit rate : 128 Kbps
Channel(s) : 2 channels
Sampling rate : 48.0 KHz
Compression mode : Lossy
Stream size : 45.5 MiB (7%)
Alignment : Aligned on interleaves
Interleave, duration : 250 ms (6.25 video frames)
Interleave, preload duration : 192 ms


Стол заказов POWER | Отзывы | Вступление в POWER
Мои раздачи


2340070a2cc64cba89e003cb03ddffb47aa9b6cfЧемпионат Испании 2011-12 / 36-й тур / Реал Мадрид - Севилья / НТВ+ [Футбол, 29.04.2012, SATRip] Чемпионат Испании 2011-12 / 36-й тур / Реал Мадрид - Севилья / НТВ+ [Футбол, 29.04.2012, SATRip] " />

Аплоадер: Админ, дата: 29-04-2012, 20:44, торрент скачан: 359 раз

Понравилась раздача? Посмотрите эти:
  • Чемпионат Испании 2013-2014 / 20-й тур / Бетис - Реал Мадрид / НТВ+ [футбол ...
  • Чемпионат Испании 2013-2014 / 14-й тур / Альмерия - Реал Мадрид / НТВ+ [фут ...
  • Чемпионат Испании 2013-2014 / 13-й тур / Реал Мадрид (Мадрид) - Реал Сосьед ...
  • Чемпионат Испании 2013-2014 / 5-й тур / Реал Мадрид - Хетафе / НТВ+ [футбол ...
  • Чемпионат Испании 2013-14 / 8-й тур / Леванте - Реал Мадрид / НТВ+ [футбол, ...
  • Чемпионат Испании 2012-13 / 37-й тур / Реал Сосьедад — Реал Мадрид / НТВ+ ...
  • Чемпионат Испании 2012-13 / 34 тур / Реал Мадрид - Вальядолид / НТВ+ [футбо ...
  • Чемпионат Испании 2012-13 / 36 тур / Реал Мадрид - Малага / НТВ+ [футбол,08 ...
  • Чемпионат Испании 2012-13 / 35 тур / Эспаньол - Реал Мадрид / НТВ+ [футбол, ...
  • Чемпионат Испании 2012-13 / 33-й тур / Атлетико Мадрид - Реал Мадрид / НТВ+ ...
  • Чемпионат Испании 2011-12 / 30-й тур / Реал Мадрид - Реал Сосьедад / НТВ+ [ ...
  • Чемпионат Испании 2011-12 / 33-й тур / Атлетико М - Реал М / НТВ+ [Футбол, ...
  • Чемпионат Испании 2011-12 / 35-й тур / Барселона - Реал / Футбол HD [Футбол ...
  • Чемпионат Испании 2011-12 / 20-й тур / Атлетик - Реал / НТВ+ [Футбол, 02.05 ...
  • Чемпионат Испании 2012-13 / 18-й тур / Реал Мадрид - Реал Сосьедад / НТВ+ [ ...
  • Чемпионат Испании 2011-12 / 16-й тур / Эль-Классико: Реал Мадрид - Барселон ...
  • Чемпионат Испании 2011-12 / 35-й тур / Барселона - Реал М / НТВ+ [Футбол, 2 ...
  • Чемпионат Испании 2011-12 / 35-й тур / Барселона - Реал Мадрид [Футбол, 21. ...
  • Чемпионат Испании 2012-13 / 7-й тур / Барселона - Реал Мадрид / Футбол HD [ ...
  • Чемпионат Испании 2012-13 / 13-й тур / Бетис - Реал Мадрид / НТВ+ [Футбол, ...
  • Информация
    Посетители, находящиеся в группе Гости, не могут оставлять комментарии к данной публикации.