вход на сайт

Имя пользователя :
Пароль :

Восстановление пароля Регистрация
Футбольный Клуб / НТВ+ [Футбол, 27.04.2012, SD, H.264, RU, SAT]
Рейтинг:
(голосов: 1)



[img]{THEME}/images/logopost.png[/img]



Футбольный Клуб / Эфир от 27.04.2012
Вид спорта:: Футбол
Год выпуска: 27.04.2012
Ведущий: В. Уткин
Язык комментариев: Русский
Описание: «Футбольный клуб» — авторская информационно - аналитическая еженедельная программа о футболе.
В выпуске:
- Зидан в Москве
- 1/2 Лиги Чемпионов
- Вячеслав Подберезкин
- Монпелье
- Луис Энрике
- Диего Пабло Симеоне
Качество: SATRip
Продолжительность: 00:53:10
Формат: MKV
Видео кодек: H264
Аудио кодек: MP3
Свойства видео: 704x392 (1.76:1), 25 fps, 1000 kbps
Свойства аудио: 48 kHz, MPEG Layer 3, 2 ch, ~128.00 kbps avg
Тех. описание ▼
Format : Matroska
Format version : Version 2
File size : 429 MiB
Duration : 53mn 10s
Overall bit rate : 1 128 Kbps
Encoded date : UTC 2012-04-27 18:23:25
Writing application : mkvmerge v4.0.0 (The Stars were mine) сборка от Jun 6 2010 16:18:42
Writing library : libebml v1.0.0 + libmatroska v1.0.0

Video
ID : 1
Format : AVC
Format/Info : Advanced Video Codec
Format profile : [email protected]
Format settings, CABAC : Yes
Format settings, ReFrames : 1 frame
Codec ID : V_MPEG4/ISO/AVC
Duration : 53mn 10s
Bit rate : 978 Kbps
Width : 704 pixels
Height : 392 pixels
Display aspect ratio : 16:9
Frame rate : 25.000 fps
Color space : YUV
Chroma subsampling : 4:2:0
Bit depth : 8 bits
Scan type : Progressive
Bits/(Pixel*Frame) : 0.142
Stream size : 372 MiB (87%)
Default : Yes
Forced : No

Audio
ID : 2
Format : MPEG Audio
Format version : Version 1
Format profile : Layer 3
Codec ID : A_MPEG/L3
Codec ID/Hint : MP3
Duration : 53mn 10s
Bit rate mode : Constant
Bit rate : 128 Kbps
Channel(s) : 2 channels
Sampling rate : 48.0 KHz
Compression mode : Lossy
Stream size : 48.7 MiB (11%)
Writing library : LAMELAME
Default : Yes
Forced : No


Стол заказов POWER | Отзывы | Вступление в POWER
Мои раздачи


dd1e3478fa5fcca4e2bcc9c79d097ee370e24816Футбольный Клуб / НТВ+ [Футбол, 27.04.2012, SD, H.264, RU, SAT] Футбольный Клуб / НТВ+ [Футбол, 27.04.2012, SD, H.264, RU, SAT] " />

Аплоадер: Админ, дата: 28-04-2012, 00:51, торрент скачан: 359 раз

Понравилась раздача? Посмотрите эти:
  • Чемпионат Франции 2012-13 / 31-й тур / Обзор Матчей / Футбол+ [Футбол, 08.0 ...
  • Футбольный клуб / Чемпионат Европы 2012 / НТВ+ [Футбол, 08.06.2012, HDTVRip ...
  • Чемпионат Европы 2012 / 1/2 финала / Германия - Италия / Спорт 1 HD [Футбо ...
  • Футбольный клуб / НТВ+ [21.09.2012, Футбол, HDTVRip]
  • Футбольный клуб / НТВ+ [28.09.2012, Футбол, HDTVRip]
  • Футбольный клуб / НТВ+ [19.10.2012, SD, XviD, RU, IPTV]
  • Журнал Лиги Чемпионов 2012-13 / НТВ+ [10.11.2012, футбол, HDTV]
  • Журнал Лиги Чемпионов 2012-13 / НТВ+ [17.11.2012, футбол, HDTV]
  • Футбольный Клуб / НТВ+ [футбол,23.11.2012 , HDTV,720p,RU, HDTV]
  • Чемпионат Италии 2012-13 / 16-й тур / Интер — Наполи / НТВ+ [Футбол, 09.12. ...
  • Футбольный клуб / НТВ+ [Футбол, 07.12.2012, IPTVRip]
  • Футбольный клуб / НТВ+ [Футбол, 21.12.2012, SATRip]
  • Футбольный Клуб / Эфир от 24.02.2012 / НТВ+ [2012, Футбол, SATRip]
  • Футбольный Клуб / НТВ+ [Футбол, 06.04.2012, SD, XviD, RU, SAT]
  • Футбольный Клуб / НТВ+ [Футбол, 04.05.2012, SD, XviD, RU, SATRip]
  • Футбольный Клуб / Эфир от 11.05.2012 / НТВ+ [2012, Футбол, SATRip]
  • Футбольный Клуб / Эфир от 18.05.2012 / НТВ+ [2012, Футбол, SATRip]
  • Футбольный Клуб / Эфир от 25.05.2012 / НТВ+ [2012, Футбол, SATRip]
  • Футбольный Клуб на Чемпионате Европы 2012 / 1-6,8-10,12,14,16,18,20,22,24,2 ...
  • Футбольный Клуб [Футбол, 14.09.12, SATRip]
  • Футбольный клуб / НТВ+ [футбол, 05.10.2012, SD, XviD, RU, IPTV]
  • Футбольный клуб / НТВ+ [футбол, 12.10.2012, XviD, RU,SATRip]
  • Футбольный клуб / НТВ+ [27.10.2012, SD, XviD, RU, IPTV]
  • Футбольный клуб / Эфир от 02.11.2012 / НТВ+ [Футбол, 02.11.2012, HDTVRip]
  • Футбольный клуб / НТВ+ [09.11.2012, футбол, SAT]
  • Информация
    Посетители, находящиеся в группе Гости, не могут оставлять комментарии к данной публикации.