вход на сайт

Имя пользователя :
Пароль :

Восстановление пароля Регистрация
Лига Чемпионов 2011-12 / 1/2 финала / Ответный матч / Барселона (Испания) - Челси (Англия) / НТВ+ / Футбол 2 HD [Футбол, 24.04.2012, HDRip/720p/RU]
Рейтинг:
(голосов: 1)



[img]{THEME}/images/logopost.png[/img]




Лига Чемпионов 2011-12 1/2 финала
Ответный матч. НТВ + Футбол 2


Вид спорта: Футбол
Год выпуска: 24.04.2012
Язык комментариев: Русский (Шмурнов)
Участники: Барселона (Испания) - Челси (Англия)
Описание: Предлагаю вашему вниманию ответный матч 1/2 финала Лиги Чемпионов 2011-12
Счет матча ▼2-2
Качество: HDTVRip
Продолжительность ▼00:55:08 + 00:51:14
Формат: MKV
Видео кодек: AVC
Аудио кодек: AC3
Свойства видео: 1280x720, 25fps, 3000kbps
Свойства аудио: 48 kHz, 2 ch, 128.00 kbps
Тех. данные ▼
Format : Matroska
Format version : Version 1
File size : 1.21 GiB
Duration : 55mn 8s
Overall bit rate : 3 134 Kbps
Encoded date : UTC 2012-04-24 20:52:33
Writing application : mkvmerge v2.1.0 (Another Place To Fall) built on Aug 19 2007 13:40:07
Writing library : libebml v0.7.7 + libmatroska v0.8.1

Video
ID : 1
Format : AVC
Format/Info : Advanced Video Codec
Format profile : [email protected]
Format settings, CABAC : Yes
Format settings, ReFrames : 4 frames
Codec ID : V_MPEG4/ISO/AVC
Duration : 55mn 8s
Bit rate : 3 000 Kbps
Width : 1 280 pixels
Height : 720 pixels
Display aspect ratio : 16:9
Frame rate : 25.000 fps
Color space : YUV
Chroma subsampling : 4:2:0
Bit depth : 8 bits
Scan type : Progressive
Bits/(Pixel*Frame) : 0.130
Stream size : 1.13 GiB (94%)
Writing library : x264 core 122 r2184 5c85e0a
Encoding settings : cabac=1 / ref=2 / deblock=1:0:0 / analyse=0x3:0x113 / me=hex / subme=4 / psy=1 / psy_rd=1.00:0.00 / mixed_ref=0 / me_range=16 / chroma_me=1 / trellis=1 / 8x8dct=1 / cqm=0 / deadzone=21,11 / fast_pskip=1 / chroma_qp_offset=0 / threads=6 / sliced_threads=0 / nr=0 / decimate=1 / interlaced=0 / bluray_compat=0 / constrained_intra=0 / bframes=3 / b_pyramid=2 / b_adapt=1 / b_bias=0 / direct=1 / weightb=1 / open_gop=0 / weightp=1 / keyint=250 / keyint_min=25 / scenecut=40 / intra_refresh=0 / rc_lookahead=20 / rc=abr / mbtree=1 / bitrate=3000 / ratetol=1.0 / qcomp=0.60 / qpmin=10 / qpmax=51 / qpstep=4 / ip_ratio=1.40 / aq=1:1.00
Language : English
Default : Yes
Forced : No

Audio
ID : 2
Format : AC-3
Format/Info : Audio Coding 3
Mode extension : CM (complete main)
Codec ID : A_AC3
Duration : 55mn 8s
Bit rate mode : Constant
Bit rate : 128 Kbps
Channel(s) : 2 channels
Channel positions : Front: L R
Sampling rate : 48.0 KHz
Bit depth : 16 bits
Compression mode : Lossy
Stream size : 50.5 MiB (4%)
Default : Yes
Forced : No


Стол заказов POWER | Отзывы | Вступление в POWER
Мои раздачи


3c57b2d4d77d06bfbb7adb840e89e3289f3dbd47Лига Чемпионов 2011-12 / 1/2 финала / Ответный матч / Барселона (Испания) - Челси (Англия) / НТВ+ / Футбол 2 HD [Футбол, 24.04.2012, HDRip/720p/RU] Лига Чемпионов 2011-12 / 1/2 финала / Ответный матч / Барселона (Испания) - Челси (Англия) / НТВ+ / Футбол 2 HD [Футбол, 24.04.2012, HDRip/720p/RU] " />

Аплоадер: Админ, дата: 25-04-2012, 09:05, торрент скачан: 359 раз

Понравилась раздача? Посмотрите эти:
  • Лига Чемпионов 2012-13 / 1/2 финала / Ответный матч / + Превью / Барселона ...
  • Лига Чемпионов 2012-13 / 1/2 Финала / Ответный матч / Барселона (Испания) — ...
  • Лига Чемпионов 2012-13 / 1/4 финала / Ответный матч / Барселона (Испания) - ...
  • Лига Чемпионов 2012-13 / 1/4 финала / Ответный матч / Барселона (Испания) — ...
  • Лига Чемпионов 2012-13 / 1/8 финала / Ответный Матч / Барселона (Испания) ...
  • Лига Чемпионов 2012-13 / 1/8 финала / Ответный матч / Манчестер Юнайтед (Ма ...
  • Лига Чемпионов 2011-12 / 1/8 финала / Ответный матч / Арсенал (Англия) - Ми ...
  • Лига Чемпионов 2011-12 / 1/8 финала / Ответный матч / Барселона (Испания) - ...
  • Лига чемпионов 2009-10 / 1/4 финала / Ответный матч / Барселона (Испания) - ...
  • Лига Чемпионов 2008-09 / 1/2 Финала /Ответный матч / Челси - Барселона [200 ...
  • Лига Чемпионов 2009-10 / 1/2 финала / Ответный матч / Барселона (Испания) ...
  • Лига Чемпионов 2011-12 / 1/8 финала / Ответный матч / Барселона (Испания) - ...
  • Лига Чемпионов 2011-12 / 1/8 финала / Ответный матч / Челси (Англия) - Напо ...
  • Лига Чемпионов 2011-12 / 1/4 финала / Ответный матч / Барселона (Испания) ...
  • Лига Чемпионов 2011-12 / 1/4 финала / Ответный матч / Челси (Англия) - Бенф ...
  • Лига Чемпионов 2011-12 / 1/2 финала / Первый матч / Челси (Англия) - Барсел ...
  • Лига Чемпионов 2011-12 / 1/2 финала / Первый матч / Челси (Англия) - Барсел ...
  • Лига Чемпионов 2011-12 / 1/2 финала / Ответный матч / Барселона (Испания) - ...
  • Лига Чемпионов 2011-12 / 1/2 финала / Ответный матч / Обзор матча / Барсело ...
  • Лига Чемпионов 2011-12 / 1/2 финала / Ответный матч / Реал (Испания) - Бава ...
  • Информация
    Посетители, находящиеся в группе Гости, не могут оставлять комментарии к данной публикации.