вход на сайт

Имя пользователя :
Пароль :

Восстановление пароля Регистрация
Чемпионат Испании 2011-12 / 35-й тур / Барселона - Реал / Футбол HD [Футбол, 21.04.2012, HDTV/1080i, H.264, RU]
Рейтинг:
(голосов: 1)



[img]{THEME}/images/logopost.png[/img]



Чемпионат Испании 2011-12
35-й тур

Вид спорта: Футбол
Год выпуска: 21.04.2012
Язык комментариев: Русский (В. Уткин)
Участники: Барселона - Реал Мадрид
Описание: Чемпионат Испании 2011-12, 35-й тур
Составы команд ▼Счет матча ▼
Качество: HDTV
Продолжительность ▼00:49:17+00:55:44
Формат: TS
Видео кодек: H.264
Аудио кодек: MPEG
Свойства видео: AVC at 13,2 Мбит/сек, 1920 x 1080 (1.778) at 25.000 fps
Свойства аудио: MPEG Audio at 192 Кбит/сек, 2 канала, 48,0 КГц
Тех. описание ▼Format : MPEG-TS
File size : 4.55 GiB
Duration : 49mn 17s
Overall bit rate : 13.2 Mbps

Video
ID : 325 (0x145)
Menu ID : 14105 (0x3719)
Format : AVC
Format/Info : Advanced Video Codec
Format profile : [email protected]
Format settings, CABAC : Yes
Format settings, ReFrames : 3 frames
Codec ID : 27
Duration : 49mn 17s
Bit rate : 12.4 Mbps
Width : 1 920 pixels
Height : 1 080 pixels
Display aspect ratio : 16:9
Frame rate : 25.000 fps
Standard : Component
Color space : YUV
Chroma subsampling : 4:2:0
Bit depth : 8 bits
Scan type : Interlaced
Scan order : Top Field First
Bits/(Pixel*Frame) : 0.239
Stream size : 4.26 GiB (94%)
Color primaries : BT.709-5, BT.1361, IEC 61966-2-4, SMPTE RP177
Transfer characteristics : BT.709-5, BT.1361
Matrix coefficients : BT.709-5, BT.1361, IEC 61966-2-4 709, SMPTE RP177

Audio
ID : 405 (0x195)
Menu ID : 14105 (0x3719)
Format : MPEG Audio
Format version : Version 1
Format profile : Layer 2
Codec ID : 4
Duration : 49mn 17s
Bit rate mode : Constant
Bit rate : 192 Kbps
Channel(s) : 2 channels
Sampling rate : 48.0 KHz
Compression mode : Lossy
Delay relative to video : 106ms
Stream size : 67.7 MiB (1%)
Language : Russian
Language, more info : Clean effects


Стол заказов POWER | Отзывы | Вступление в POWER
Мои раздачи


3399707578e50beecfbe461beb8192bd5daf32c8Чемпионат Испании 2011-12 / 35-й тур / Барселона - Реал / Футбол HD [Футбол, 21.04.2012, HDTV/1080i, H.264, RU] Чемпионат Испании 2011-12 / 35-й тур / Барселона - Реал / Футбол HD [Футбол, 21.04.2012, HDTV/1080i, H.264, RU] " />

Аплоадер: Админ, дата: 22-04-2012, 08:20, торрент скачан: 359 раз

Понравилась раздача? Посмотрите эти:
  • Кубок Испании 2013-2014 / 1/4 финала / Первый матч / Эспаньол - Реал Мадрид ...
  • Чемпионат Испании 2013-2014 / 14-й тур / Барселона - Гранада / НТВ+ [футбол ...
  • Чемпионат Испании 2013-2014 / 6-й тур / Барселона - Реал Сосьедад / НТВ+ [ф ...
  • Чемпионат Испании 2013-14 / 8-й тур / Леванте - Реал Мадрид / НТВ+ [футбол, ...
  • Чемпионат Германии 2012-2013 / 32-й тур / Боруссия (Дортмунд) – Бавария / Н ...
  • Чемпионат Испании 2012-13 / 34-й тур / Реал Мадрид - Вальядолид / НТВ+ [04. ...
  • Чемпионат Испании 2012-13 / 26-й тур / Реал Мадрид - Барселона / НТВ+ Футбо ...
  • Чемпионат Испании 2012-2013 / 26-й тур / Реал Мадрид - Барселона / НТВ+ [Фу ...
  • Чемпионат Испании 2012-13 / 26-й тур / Реал М (Мадрид) - Барселона (Барсело ...
  • Кубок Испании 2012-13 / 1/2 финала / Ответный матч / Барселона - Реал Мадри ...
  • Кубок Испании 2012-13 / 1/2 финала / Первый матч / Реал Мадрид - Барселона ...
  • Чемпионат Испании 2012-13 / 23-й тур / Реал - Севилья / НТВ+ Футбол HD [Фут ...
  • Чемпионат Испании 2010-2011 / 13-й тур / Барселона - Реал Мадрид / НТВ + [2 ...
  • Чемпионат Испании 2011-12 / 36-й тур / Реал Мадрид - Севилья / НТВ+ [Футбол ...
  • Чемпионат Испании 2011-12 / 20-й тур / Атлетик - Реал / НТВ+ [Футбол, 02.05 ...
  • Суперкубок Испании 2012 / Первый Матч / Барселона - Реал Мадрид / Спорт 1 H ...
  • Чемпионат Испании 2012-13 / 20-й тур / Валенсия - Реал / Футбол HD [20.01.2 ...
  • Чемпионат Испании 2009-10 / 12-й тур / Барселона - Реал (Мадрид) / НТВ+ (Фу ...
  • Чемпионат Испании 2011-12 / 16-й тур / Эль-Классико: Реал Мадрид - Барселон ...
  • Чемпионат Испании 2011-12 / 35-й тур / Барселона - Реал М / НТВ+ [Футбол, 2 ...
  • Чемпионат Испании 2011-12 / 35-й тур / Барселона - Реал Мадрид [Футбол, 21. ...
  • Чемпионат Испании 2012-13 / 1-й тур / Барселона - Реал Сосьедад / НТВ+ [фут ...
  • Суперкубок Испании 2012 | Ответный матч | Реал Мадрид - Барселона | Спорт 1 ...
  • Чемпионат Испании 2012-13 / 7-й тур / Барселона - Реал Мадрид / Футбол HD [ ...
  • Лига Чемпионов 2012-13 / 6-й тур / Группа D / Реал (Испания) - Аякс (Нидерл ...
  • Информация
    Посетители, находящиеся в группе Гости, не могут оставлять комментарии к данной публикации.