вход на сайт

Имя пользователя :
Пароль :

Восстановление пароля Регистрация
Чемпионат Испании 2011-12 / 33-й тур / Атлетико М - Реал М / НТВ+ [Футбол, 11.04.2012, XviD, RU, SAT]
Рейтинг:
(голосов: 1)



[img]{THEME}/images/logopost.png[/img]



Чемпионат Испании 2011-12
33-й тур

Вид спорта: Футбол
Год выпуска: 11.04.2012
Язык комментариев: Русский
Участники: Атлетико Мадрид - Реал Мадрид
Описание: Чемпионат Испании 2011-12, 33-й тур
Счет матча ▼
1 - 4
Качество: SATRip
Продолжительность ▼01:38:12
Формат: AVI
Видео кодек: XviD
Аудио кодек: MP3
Свойства видео: 704x400, 25 fps, 1800 kbps
Свойства аудио: 48 kHz, 2 ch, 128.00 kbps
Тех. описание ▼
Format : AVI
Format/Info : Audio Video Interleave
File size : 677 MiB
Duration : 48mn 50s
Overall bit rate : 1 937 Kbps
Writing library : VirtualDub build 32817/release

Video
ID : 0
Format : MPEG-4 Visual
Format profile : Advanced [email protected]
Format settings, BVOP : 2
Format settings, QPel : No
Format settings, GMC : No warppoints
Format settings, Matrix : Default (H.263)
Codec ID : XVID
Codec ID/Hint : XviD
Duration : 48mn 50s
Bit rate : 1 724 Kbps
Width : 704 pixels
Height : 400 pixels
Display aspect ratio : 16:9
Frame rate : 25.000 fps
Color space : YUV
Chroma subsampling : 4:2:0
Bit depth : 8 bits
Scan type : Progressive
Compression mode : Lossy
Bits/(Pixel*Frame) : 0.245
Stream size : 602 MiB (89%)
Writing library : XviD 1.2.1 (UTC 2008-12-04)

Audio
ID : 1
Format : MPEG Audio
Format version : Version 1
Format profile : Layer 3
Codec ID : 55
Codec ID/Hint : MP3
Duration : 48mn 49s
Bit rate mode : Constant
Bit rate : 128 Kbps
Channel(s) : 2 channels
Sampling rate : 48.0 KHz
Compression mode : Lossy
Delay relative to video : 12ms
Stream size : 44.7 MiB (7%)
Alignment : Split accross interleaves


Стол заказов POWER | Отзывы | Вступление в POWER
И не забываем говорить СПАСИБО, ведь это будет вдохновлять меня на новые релизы !!!

Мои раздачи


Скачал сам - дай скачать другим! Не уходи с раздачи после скачивания!!!


61c2a7a4e4e3b15d44b0d3d3d29393f2e51f968fЧемпионат Испании 2011-12 / 33-й тур / Атлетико М - Реал М / НТВ+ [Футбол, 11.04.2012, XviD, RU, SAT] Чемпионат Испании 2011-12 / 33-й тур / Атлетико М - Реал М / НТВ+ [Футбол, 11.04.2012, XviD, RU, SAT] " />

Аплоадер: Админ, дата: 12-04-2012, 04:26, торрент скачан: 359 раз

Понравилась раздача? Посмотрите эти:
  • Чемпионат Испании 2013-2014 / 19-й тур / Атлетико Мадрид - Барселона / НТВ+ ...
  • Чемпионат Испании 2013-2014 / 13-й тур / Реал Мадрид (Мадрид) - Реал Сосьед ...
  • Чемпионат Испании 2013-2014 / 7-й тур / Реал Мадрид - Атлетико / НТВ+ [футб ...
  • Чемпионат Испании 2013-2014 / 7-й тур / Реал Мадрид – Атлетико / НТВ+ [футб ...
  • Чемпионат Испании 2013-14 / 8-й тур / Леванте - Реал Мадрид / НТВ+ [футбол, ...
  • Чемпионат Испании 2012-13 / 37-й тур / Реал Сосьедад — Реал Мадрид / НТВ+ ...
  • Кубок Испании 2012-13 / Финал / Реал Мадрид - Атлетико (Мадрид) / Cпорт 1 [ ...
  • Кубок Испании 2012-13 / Финал / Реал Мадрид - Атлетико (Мадрид) / Спорт 1 [ ...
  • Чемпионат Испании 2012-13 / 33-й тур / Атлетико Мадрид - Реал Мадрид / НТВ+ ...
  • Чемпионат Испании 2011-12 / 30-й тур / Реал Мадрид - Реал Сосьедад / НТВ+ [ ...
  • Чемпионат Германии 2011-12 / 28-й тур / Боруссия Д - Штутгарт / НТВ+ [Футбо ...
  • Чемпионат Испании 2011-12 / 31-й тур / Осасуна - Реал / НТВ+ [Футбол, 31.03 ...
  • Чемпионат Испании 2011-12 / 35-й тур / Барселона - Реал / Футбол HD [Футбол ...
  • Чемпионат Испании 2011-12 / 36-й тур / Реал Мадрид - Севилья / НТВ+ [Футбол ...
  • Чемпионат Испании 2011-12 / 20-й тур / Атлетик - Реал / НТВ+ [Футбол, 02.05 ...
  • Чемпионат Испании 2012-13 / 18-й тур / Реал Мадрид - Реал Сосьедад / НТВ+ [ ...
  • Чемпионат Англии 2011-12 / 32 тур / Манчестер Юнайтед - Куинз Парк Рейнджер ...
  • Чемпионат Англии 2011-12 / 32 тур / Арсенал - Манчестер Сити / Спорт 1 [Фут ...
  • Чемпионат Англии 2011-12 / 32-й тур / Обзор тура / Спорт 1 [Футбол, 10.04.2 ...
  • Чемпионат Испании 2011-12 / 35-й тур / Барселона - Реал М / НТВ+ [Футбол, 2 ...
  • Чемпионат Испании 2011-12 / 35-й тур / Барселона - Реал Мадрид [Футбол, 21. ...
  • Чемпионат Испании 2012-13 | 5-й тур | Обзор матчей | НТВ+ [Футбол, 24.09.20 ...
  • Чемпионат Испании 2012-13 / 7-й тур / Барселона - Реал Мадрид / Футбол HD [ ...
  • Чемпионат Испании 2012-13 / Тур 14 / Реал М - Атлетико М [футбол, 02.12.201 ...
  • Чемпионат Испании 2012-13 / Тур 14 / Реал М - Атлетико М [футбол, 02.12.201 ...
  • Информация
    Посетители, находящиеся в группе Гости, не могут оставлять комментарии к данной публикации.