вход на сайт

Имя пользователя :
Пароль :

Восстановление пароля Регистрация
Чемпионат Германии 2011-12 / 28-й тур / Боруссия Д - Штутгарт / НТВ+ [Футбол, 30.03.2012, SATRip, AVI, RU]
Рейтинг:
(голосов: 1)



[img]{THEME}/images/logopost.png[/img]



Чемпионат Германии 2011-12
28-й тур.


Вид спорта: Футбол
Год выпуска: 30.03.2012
Язык комментариев: Русский (Михаил Мельников)
Участники: Боруссия Д — Штутгарт
Описание: Чемпионат Германии 2011-12 28-й тур.
Составы команд ▼

Счет матча ▼
Качество: SATRip
Продолжительность ▼00:49:44 + 00:52:12
Формат: AVI
Видео кодек: XviD
Аудио кодек: MP3
Свойства видео: 704x400 (16/9), 25,000fps, 1700 Kbps
Свойства аудио: 48 kHz, MPEG Layer 3, 2 ch, ~128.00 kbps avg
Тех. описание ▼
Format : AVI
Format/Info : Audio Video Interleave
File size : 689 MiB
Duration : 49mn 44s
Overall bit rate : 1 937 Kbps
Writing library : VirtualDub build 34703/release

Video
ID : 0
Format : MPEG-4 Visual
Format profile : Advanced [email protected]
Format settings, BVOP : 2
Format settings, QPel : No
Format settings, GMC : No warppoints
Format settings, Matrix : Default (MPEG)
Codec ID : XVID
Codec ID/Hint : XviD
Duration : 49mn 44s
Bit rate : 1 799 Kbps
Width : 704 pixels
Height : 400 pixels
Display aspect ratio : 16:9
Frame rate : 25.000 fps
Color space : YUV
Chroma subsampling : 4:2:0
Bit depth : 8 bits
Scan type : Progressive
Compression mode : Lossy
Bits/(Pixel*Frame) : 0.256
Stream size : 640 MiB (93%)
Writing library : XviD 1.2.1 (UTC 2008-12-04)

Audio
ID : 1
Format : MPEG Audio
Format version : Version 1
Format profile : Layer 3
Mode : Joint stereo
Mode extension : MS Stereo
Codec ID : 55
Codec ID/Hint : MP3
Duration : 49mn 44s
Bit rate mode : Constant
Bit rate : 128 Kbps
Channel(s) : 2 channels
Sampling rate : 48.0 KHz
Compression mode : Lossy
Stream size : 45.5 MiB (7%)
Alignment : Split accross interleaves
Interleave, duration : 40 ms (1.00 video frame)
Interleave, preload duration : 500 ms

Стол заказов POWER | Отзывы | Вступление в POWER

И не забываем говорить СПАСИБО, ведь это будет вдохновлять меня на новые релизы !!!

Мои раздачи


Скачал сам - дай скачать другим! Не уходи с раздачи после скачивания!!!


dea1c7dc9daa0cfc00f07d770c8c46c9515f61f4Чемпионат Германии 2011-12 / 28-й тур / Боруссия Д - Штутгарт / НТВ+ [Футбол, 30.03.2012, SATRip, AVI, RU] Чемпионат Германии 2011-12 / 28-й тур / Боруссия Д - Штутгарт / НТВ+ [Футбол, 30.03.2012, SATRip, AVI, RU] " />

Аплоадер: Админ, дата: 31-03-2012, 02:52, торрент скачан: 359 раз

Понравилась раздача? Посмотрите эти:
  • Чемпионат Германии 2013-14 / 18-й тур / Боруссия (Мёнхенгладбах) - Бавария ...
  • Чемпионат Германии 2013-14 / 13-й тур / Боруссия Д - Бавария / НТВ+ [футбол ...
  • Чемпионат Германии 2013-2014 / 11-й тур / Боруссия Д - Штутгарт / НТВ+ [201 ...
  • Чемпионат Германии 2013-14 / 5-й тур / Боруссия (Дортмунд) - Гамбург / НТВ+ ...
  • Чемпионат Германии 2012-13 / 32-й тур / Боруссия Д — Бавария / НТВ+ [футбол ...
  • Чемпионат Германии 2012-2013 / 32-й тур / Боруссия (Дортмунд) – Бавария / Н ...
  • Чемпионат Германии 2012-2013 / 32-й тур / Обзор матчей / Футбол + (UA) [06. ...
  • Чемпионат Германии 2012-13 / 32-й тур / Обзор матчей / НТВ+ [Футбол, 06.05. ...
  • Чемпионат Германии 2012-13 / 29-й Тур / Бавария - Нюрнберг / НТВ+ [Футбол, ...
  • Чемпионат Германии 2012-13 / 29-й тур / Гройтер Фюрт — Боруссия (Д) / НТВ+ ...
  • Чемпионат Германии 2012-13 / 29-й тур / Обзор матчей / НТВ+ [Футбол, 15.04. ...
  • Чемпионат Германии 2012-13 / 27-й тур / Бавария - Гамбург / НТВ+ [Футбол, 3 ...
  • Чемпионат Германии 2012-13 / 24-й Тур / Боруссия (Д) - Ганновер / НТВ+ [фут ...
  • Чемпионат Испании 2011-12 / 33-й тур / Атлетико М - Реал М / НТВ+ [Футбол, ...
  • Чемпионат Испании 2011-12 / 36-й тур / Реал Мадрид - Севилья / НТВ+ [Футбол ...
  • Чемпионат Европы 2012 / Группа C / 1-й тур / Ирландия — Хорватия / ТРК Футб ...
  • Чемпионат Англии 2011-12 / 31 тур / Ньюкасл - Ливерпуль / Спорт 1 [Футбол, ...
  • Чемпионат Англии 2011-12 / 32 тур / Манчестер Юнайтед - Куинз Парк Рейнджер ...
  • Чемпионат Англии 2011-12 / 32 тур / Арсенал - Манчестер Сити / Спорт 1 [Фут ...
  • Чемпионат Англии 2011-12 / 32-й тур / Обзор тура / Спорт 1 [Футбол, 10.04.2 ...
  • Чемпионат Испании 2011-12 / 35-й тур / Барселона - Реал М / НТВ+ [Футбол, 2 ...
  • Чемпионат Англии 2011-12 / 35 тур / Манчестер Юнайтед - Эвертон / Спорт 1 [ ...
  • Чемпионат Англии 2011-2012 / Championship / 45-й Тур / Обзор Матчей / НТВ+ ...
  • Чемпионат Европы 2012 / Группа B / 1-й тур / Германия - Португалия / Спорт ...
  • Чемпионат России 2012-13 / 1-й тур / Мордовия - Локомотив / НТВ+ [Футбол, 2 ...
  • Информация
    Посетители, находящиеся в группе Гости, не могут оставлять комментарии к данной публикации.