вход на сайт

Имя пользователя :
Пароль :

Восстановление пароля Регистрация
Чемпионат Италии 2012-13 / 36-й тур / Рома — Кьево / НТВ+ [07.05.2013, SD, XviD, RU, SAT]
Рейтинг:
(голосов: 1)



[img]{THEME}/images/logopost.png[/img]




Чемпионат Италии 2012-13 / 36-й тур / Рома — Кьево


Вид спорта:: Футбол
Год выпуска: 2013
Язык комментариев:Одноголосый Русский
Состав команд: "Составы." ▼

Описание: Чемпионат Италии 2012-1336-й турРома — Кьево



Качество:SATRip
Продолжительность: 00:52:39 + 00:53:39



Формат: AVI
Видео кодек:XviD
Аудио кодек: MP3
Свойства видео: 704x400 (16/9), 25,000fps, XviD 1800 Kbps
Свойства аудио: 128 Kbps, 48 KHz MP3 2 channels
"Media Info" ▼D:ADMINDownloadsSerie A 2012 - 2013 Matchday 36 - Roma vs ChievoFirst Half.avi
General
Complete name : D:ADMINDownloadsSerie A 2012 - 2013 Matchday 36 - Roma vs ChievoFirst Half.avi
Format : AVI
Format/Info : Audio Video Interleave
File size : 730 MiB
Duration : 52mn 39s
Overall bit rate : 1 938 Kbps
Writing library : VirtualDub build 35456/release
Video #0
ID : 0
Format : MPEG-4 Visual
Format profile : Advanced [email protected]
Format settings, BVOP : 2
Format settings, QPel : No
Format settings, GMC : No warppoints
Format settings, Matrix : Default (MPEG)
Muxing mode : Packed bitstream
Codec ID : XVID
Codec ID/Hint : XviD
Duration : 52mn 39s
Bit rate : 1 800 Kbps
Width : 704 pixels
Height : 400 pixels
Display aspect ratio : 16:9
Frame rate : 25.000 fps
Color space : YUV
Chroma subsampling : 4:2:0
Bit depth : 8 bits
Scan type : Progressive
Compression mode : Lossy
Bits/(Pixel*Frame) : 0.256
Stream size : 678 MiB (93%)
Writing library : XviD 1.2.1 (UTC 2008-12-04)
Audio #1
ID : 1
Format : MPEG Audio
Format version : Version 1
Format profile : Layer 3
Mode : Joint stereo
Codec ID : 55
Codec ID/Hint : MP3
Duration : 52mn 39s
Bit rate mode : Constant
Bit rate : 128 Kbps
Channel(s) : 2 channels
Sampling rate : 48.0 KHz
Compression mode : Lossy
Stream size : 48.2 MiB (7%)
Alignment : Split accross interleaves
Interleave, duration : 40 ms (1.00 video frame)
Interleave, preload duration : 500 ms



fa6566b9458c3988a30a5afaf2c1256a38f219d0 Чемпионат Италии 2012-13 / 36-й тур / Рома — Кьево / НТВ+ [07.05.2013, SD, XviD, RU, SAT] Чемпионат Италии 2012-13 / 36-й тур / Рома — Кьево / НТВ+ [07.05.2013, SD, XviD, RU, SAT] " />

Аплоадер: Админ, дата: 8-05-2013, 13:44, торрент скачан: 359 раз

Понравилась раздача? Посмотрите эти:
  • Чемпионат Италии 2013-2014 / 19-й тур / Кальяри - Ювентус / НТВ+ [Футбол, 1 ...
  • Чемпионат Италии 2013-14 / 20-й тур / Ювентус - Сампдория / НТВ+ [Футбол, 1 ...
  • Чемпионат Италии 2013-14 / Serie A / 2-й тур / Катания — Интер / НТВ+ [Футб ...
  • Чемпионат Италии 2013-14 / 2-й тур / Preview / НТВ+ [30.08.2013, 720p, x26 ...
  • Чемпионат Италии 2013-14 / 1-й тур / Preview / НТВ+ [23.08.2013, 720p, x264 ...
  • Чемпионат Испании 2012-13 / 37-й тур / Эспаньол — Барселона / НТВ+ [Футбол, ...
  • Чемпионат Франции 2012-13 / 38-й тур / Обзор Матчей / Футбол+ [Футбол, 27.0 ...
  • Чемпионат Италии 2012-13 / 35-й тур / Наполи - Интер / НТВ+ [05.05.2013, Фу ...
  • Чемпионат Германии 2012-2013 / 32-й тур / Обзор матчей / Футбол + (UA) [06. ...
  • Чемпионат Италии 2012-13 / 37-й тур / Милан - Рома / НТВ+ [футбол,12.05.20 ...
  • Чемпионат России 2012-13 / 25-й тур / ЦСКА — Спартак / НТВ+ [Футбол, 21.04. ...
  • Чемпионат Франции 2012-13 / 34-й тур / Обзор Матчей / Футбол+ [Футбол, 29.0 ...
  • Чемпионат Германии 2012-13 / 29-й тур / Гройтер Фюрт — Боруссия (Д) / НТВ+ ...
  • Чемпионат Франции 2012-2013 / 32-й тур / Обзор матчей / Футбол+ (UA) [Футбо ...
  • Чемпионат Италии 2012-13 / 30-й тур / Интер — Ювентус / НТВ+ [Футбол, 30.03 ...
  • Чемпионат Франции 2012-13 / 30-й тур / Обзор Матчей / Футбол+ [Футбол, 01.0 ...
  • Чемпионат Европы 2012 / Группа C / 1-й тур / Ирландия — Хорватия / ТРК Футб ...
  • Олимпиада 2012 / Мужчины / Группа D / 1-й тур / Испания — Япония / НТВ+ [Фу ...
  • Чемпионат Англии 2012-13 / 11-й тур / Челси - Ливерпуль / Футбол [Футбол, 1 ...
  • Чемпионат Италии 2012-13 / 16-й тур / Интер — Наполи / НТВ+ [Футбол, 09.12. ...
  • Кубок Италии 2012-13 / 1/8 Финала / Интер — Верона / Футбол [Футбол, 18.12. ...
  • Чемпионат Италии 2012-13 / 16-й тур / Обзор матчей / НТВ+ [Футбол, 11.12.20 ...
  • Чемпионат России 2012-13 / 1-й тур / Мордовия - Локомотив / НТВ+ [Футбол, 2 ...
  • Чемпионат Италии 2012-13 | 1-й тур | Обзор матчей | Футбол [Футбол, 27.08.2 ...
  • Чемпионат Италии 2012-13 | 2-й тур | Обзор матчей | НТВ+ [Футбол, 03.09.201 ...
  • Информация
    Посетители, находящиеся в группе Гости, не могут оставлять комментарии к данной публикации.