вход на сайт

Имя пользователя :
Пароль :

Восстановление пароля Регистрация
Чемпионат Германии 2012-2013 / 32-й тур / Обзор матчей / Футбол + (UA) [06.05.13, XviD, UA, IPTV]
Рейтинг:
(голосов: 1)



[img]{THEME}/images/logopost.png[/img]





Чемпионат Германии 2012-2013 / 32-й тур / Обзор матчей

Вид спорта:: Футбол
Год выпуска: 06.05.2013
Язык комментариев: Профессиональный (одноголосый)
Участники: Команды чемпионата Германии
Описание:
Чемпионат Германии 2012-201332-й турОбзор матчей


Качество: IPTVRip
Продолжительность:00:51:55

Формат: AVI
Видео кодек:XviD,
Аудио кодек: MP3
Свойства видео: 704x400, 25.00fps,XviD 1,8 Mbps
Свойства аудио: 4800Hz,MP3 mono, 128 Kbps
"Media Info" ▼D:ADMINDownloads×åìïèîíàò Ãåðìàíèè 2012-201332-é òóðÎáçîð ìàò÷åé×åìïèîíàò Ãåðìàíèè 2012-201332-é òóðÎáçîð ìàò÷åé.avi
General
Complete name : D:ADMINDownloads×åìïèîíàò Ãåðìàíèè 2012-201332-é òóðÎáçîð ìàò÷åé×åìïèîíàò Ãåðìàíèè 2012-201332-é òóðÎáçîð ìàò÷åé.avi
Format : AVI
Format/Info : Audio Video Interleave
File size : 720 MiB
Duration : 51mn 55s
Overall bit rate : 1 939 Kbps
Writing library : VirtualDub build 35376/release
Video #0
ID : 0
Format : MPEG-4 Visual
Format profile : Advanced [email protected]
Format settings, BVOP : 2
Format settings, QPel : No
Format settings, GMC : No warppoints
Format settings, Matrix : Default (MPEG)
Muxing mode : Packed bitstream
Codec ID : XVID
Codec ID/Hint : XviD
Duration : 51mn 55s
Bit rate : 1 801 Kbps
Width : 704 pixels
Height : 400 pixels
Display aspect ratio : 16:9
Frame rate : 25.000 fps
Color space : YUV
Chroma subsampling : 4:2:0
Bit depth : 8 bits
Scan type : Progressive
Compression mode : Lossy
Bits/(Pixel*Frame) : 0.256
Stream size : 669 MiB (93%)
Writing library : XviD 73
Audio #1
ID : 1
Format : MPEG Audio
Format version : Version 1
Format profile : Layer 3
Codec ID : 55
Codec ID/Hint : MP3
Duration : 51mn 55s
Bit rate mode : Constant
Bit rate : 128 Kbps
Channel(s) : 1 channel
Sampling rate : 48.0 KHz
Compression mode : Lossy
Stream size : 47.5 MiB (7%)
Alignment : Split accross interleaves
Interleave, duration : 40 ms (1.00 video frame)
Interleave, preload duration : 500 ms


169cdb8f564cc6d01eb0e1b5204da3ade5397a54Чемпионат Германии 2012-2013 / 32-й тур / Обзор матчей / Футбол + (UA) [06.05.13, XviD, UA, IPTV] Чемпионат Германии 2012-2013 / 32-й тур / Обзор матчей / Футбол + (UA) [06.05.13, XviD, UA, IPTV] " />

Аплоадер: Админ, дата: 7-05-2013, 03:08, торрент скачан: 359 раз

Понравилась раздача? Посмотрите эти:
  • Чемпионат Голландии 2013-14 / 13-й тур / Обзор матчей / Спорт 1 [Футбол, 11 ...
  • Кубок Германии 2013-14 / DFB Pokal / 1 раунд / Обзор матчей / ТРК Футбол [Ф ...
  • Чемпионат Германии 2013-14 / 1-й тур / Обзор Матчей / НТВ+ [Футбол, 12.08.2 ...
  • Чемпионат Франции 2012-13 / 38-й тур / Обзор Матчей / Футбол+ [Футбол, 27.0 ...
  • Чемпионат Германии 2012-13 / 34-й Тур / Обзор Матчей / НТВ+ [Футбол, 20.05. ...
  • Чемпионат Италии 2012-13 / 35-й тур / Обзор тура / НТВ+ [06.05.2013, Футбол ...
  • Чемпионат Германии 2012-13 / 32-й тур / Обзор матчей / НТВ+ [Футбол, 06.05. ...
  • Чемпионат Франции 2012-2013 / 35-й тур / Обзор матчей / Футбол+ (UA) [Футбо ...
  • Чемпионат Англии 2012-13 / 35-й тур / Обзор матчей субботы / Match Of The D ...
  • Чемпионат Англии 2012-13 / 35-й тур / Обзор матчей воскресенья / Match Of T ...
  • Чемпионат Франции 2012-13 / 34-й тур / Обзор Матчей / Футбол+ [Футбол, 29.0 ...
  • Чемпионат Германии 2012-13 / 29-й тур / Обзор матчей / НТВ+ [Футбол, 15.04. ...
  • Чемпионат Франции 2012-2013 / 32-й тур / Обзор матчей / Футбол+ (UA) [Футбо ...
  • Чемпионат Голландии 2012-13 / Eredivisie / 30-й тур / Обзор матчей / Спорт ...
  • Чемпионат Англии 2012-2013 / 32-й тур / Обзор Матчей / Спорт 1 [Футбол, 08. ...
  • Чемпионат Англии 2012-2013 / 31-й тур / Обзор Матчей / Спорт 1 [Футбол, 02. ...
  • Чемпионат Франции 2012-13 / 30-й тур / Обзор Матчей / Футбол+ [Футбол, 01.0 ...
  • Чемпионат Голландии 2012-13 / Eredivisie / 24-й тур / Обзор матчей / Спорт ...
  • Чемпионат Италии 2012-13 / 16-й тур / Обзор матчей / НТВ+ [Футбол, 11.12.20 ...
  • Чемпионат Англии 2011-2012 / Championship / 45-й Тур / Обзор Матчей / НТВ+ ...
  • Чемпионат Англии 2012-2013 | 2-й тур | Обзор Матчей | Футбол [Футбол, 27.08 ...
  • Чемпионат Италии 2012-13 | 1-й тур | Обзор матчей | Футбол [Футбол, 27.08.2 ...
  • Чемпионат Италии 2012-13 | 2-й тур | Обзор матчей | НТВ+ [Футбол, 03.09.201 ...
  • Чемпионат Испании 2012-13 | 5-й тур | Обзор матчей | НТВ+ [Футбол, 24.09.20 ...
  • Чемпионат Испании 2012-13 | Liga BBVA | 6-й тур | Обзор матчей | НТВ+ [Футб ...
  • Информация
    Посетители, находящиеся в группе Гости, не могут оставлять комментарии к данной публикации.