вход на сайт

Имя пользователя :
Пароль :

Восстановление пароля Регистрация
Чемпионат Испании 2012-13 / 34-й тур / Реал Мадрид - Вальядолид / НТВ+ [04.05.2013, Футбол, H.264, HDTV 1080i]
Рейтинг:
(голосов: 1)



[img]{THEME}/images/logopost.png[/img]






Чемпионат Испании 2012-13 / 34-й тур / Реал Мадрид - Вальядолид

Вид спорта:: Футбол
Год выпуска: 2013
Язык комментариев: Русский
Состав команд: "Составы" ▼
Описание: Матч 34-ого тура Примеры между командами Реал Мадрид - Вальядолид
Доп. информация:
Качество:HDTVRip
Продолжительность: 00:50:43 + 00:50:00

Формат: Ts
Видео кодек: H.264
Аудио кодек: MP2
Свойства видео: 1920x1080, 25.00 fps H.264 15 2 mbps
Свойства аудио: 48 kHz,MP2 2ch, stereo, 192 Kbps
"Media Info" ▼D:ADMINDownloadsÐåàë Ìàäðèä - Âàëüÿäîëèä1 time.ts
General #20
ID : 20 (0x14)
Complete name : D:ADMINDownloadsÐåàë Ìàäðèä - Âàëüÿäîëèä1 time.ts
Format : MPEG-TS
File size : 4.95 GiB
Duration : 50mn 43s
Overall bit rate mode : Variable
Overall bit rate : 14.0 Mbps
Video #301
ID : 301 (0x12D)
Menu ID : 20101 (0x4E85)
Format : AVC
Format/Info : Advanced Video Codec
Format profile : [email protected]
Format settings, CABAC : Yes
Format settings, ReFrames : 3 frames
Codec ID : 27
Duration : 50mn 42s
Bit rate : 13.1 Mbps
Width : 1 920 pixels
Height : 1 080 pixels
Display aspect ratio : 16:9
Frame rate : 25.000 fps
Standard : Component
Color space : YUV
Chroma subsampling : 4:2:0
Bit depth : 8 bits
Scan type : Interlaced
Scan order : Top Field First
Bits/(Pixel*Frame) : 0.252
Stream size : 4.63 GiB (94%)
Color primaries : BT.709
Transfer characteristics : BT.709
Matrix coefficients : BT.709
Audio #401
ID : 401 (0x191)
Menu ID : 20101 (0x4E85)
Format : MPEG Audio
Format version : Version 1
Format profile : Layer 2
Codec ID : 4
Duration : 50mn 43s
Bit rate mode : Constant
Bit rate : 192 Kbps
Channel(s) : 2 channels
Sampling rate : 48.0 KHz
Compression mode : Lossy
Delay relative to video : -634ms
Stream size : 69.7 MiB (1%)



70c2803843ed74bd3aee05fbbcab47c466e6dabdЧемпионат Испании 2012-13 / 34-й тур / Реал Мадрид - Вальядолид / НТВ+ [04.05.2013, Футбол, H.264, HDTV 1080i] Чемпионат Испании 2012-13 / 34-й тур / Реал Мадрид - Вальядолид / НТВ+ [04.05.2013, Футбол, H.264, HDTV 1080i] " />

Аплоадер: Админ, дата: 6-05-2013, 05:48, торрент скачан: 359 раз

Понравилась раздача? Посмотрите эти:
  • Чемпионат Испании 2013-2014 / 18-й тур / Реал Мадрид - Сельта / НТВ+ [футбо ...
  • Чемпионат Испании 2013-2014 / 19-й тур / Эспаньол - Реал Мадрид / НТВ+ [фут ...
  • Чемпионат Испании 2013-2014 / 19-й тур / Эспаньол - Реал Мадрид / НТВ+ [фут ...
  • Чемпионат Испании 2013-2014 / 20-й тур / Бетис - Реал Мадрид / НТВ+ [футбол ...
  • Кубок Испании 2013-2014 / 1/4 финала / Первый матч / Эспаньол - Реал Мадрид ...
  • Чемпионат Испании 2013-2014 / 20-й тур / Реал Мадрид - Гранада / НТВ+ Спорт ...
  • Чемпионат Испании 2013-2014 / 14-й тур / Альмерия - Реал Мадрид / НТВ+ [фут ...
  • Лига Чемпионов 2013-2014 / Группа В / 4-й тур / Ювентус (Турин, Италия) - Р ...
  • Чемпионат Испании 2013-2014 / 13-й тур / Реал Мадрид (Мадрид) - Реал Сосьед ...
  • Чемпионат Испании 2013-2014 / 13-й тур / Реал Мадрид (Мадрид) - Реал Сосьед ...
  • Чемпионат Испании 2013-2014 / 5-й тур / Реал Мадрид - Хетафе / НТВ+ [футбол ...
  • Чемпионат Испании 2013-2014 / 5-й тур / Реал Мадрид - Хетафе / НТВ+ [футбол ...
  • Чемпионат Испании 2013-2014 / 7-й тур / Реал Мадрид - Атлетико / НТВ+ [футб ...
  • Чемпионат Испании 2013-14 / 8-й тур / Леванте - Реал Мадрид / НТВ+ [футбол, ...
  • Лига Чемпионов 2013-2014 / Группа В / 3-й тур / Реал Мадрид (Мадрид, Испани ...
  • Чемпионат Испании 2012-13 / 37-й тур / Реал Сосьедад — Реал Мадрид / НТВ+ ...
  • Чемпионат Испании 2012-13 / 34 тур / Реал Мадрид - Вальядолид / НТВ+ [футбо ...
  • Чемпионат Испании 2012-13 / 26-й тур / Реал М (Мадрид) - Барселона (Барсело ...
  • Чемпионат Испании 2012-13 / 22-й тур / Гранада (Гранада) - Реал М (Мадрид) ...
  • Чемпионат Испании 2011-12 / 35-й тур / Барселона - Реал / Футбол HD [Футбол ...
  • Суперкубок Испании 2012 / Первый Матч / Барселона - Реал Мадрид / Спорт 1 H ...
  • Чемпионат Испании 2012-13 / 21-й тур / Реал Мадрид - Хетафе / НТВ+ [Футбол, ...
  • Чемпионат Испании 2011-12 / 35-й тур / Барселона - Реал Мадрид [Футбол, 21. ...
  • Суперкубок Испании 2012 | Ответный матч | Реал Мадрид - Барселона | Спорт 1 ...
  • Чемпионат Испании 2012-13 / 7-й тур / Барселона - Реал Мадрид / Футбол HD [ ...
  • Информация
    Посетители, находящиеся в группе Гости, не могут оставлять комментарии к данной публикации.