вход на сайт

Имя пользователя :
Пароль :

Восстановление пароля Регистрация
Чемпионат Германии 2012-2013 / 32-й тур / Боруссия (Дортмунд) – Бавария / НТВ+HD [04.05.2013, Футбол, H.264, RU, 1080i]
Рейтинг:
(голосов: 1)



[img]{THEME}/images/logopost.png[/img]






Чемпионат Германии 2012-2013 / 32-й тур / «Боруссия» (Дортмунд) – «Бавария»

Вид спорта- Футбол
Год выпуска: суббота 4 мая | 20:25
Язык комментариев: Русский (Занозин, Мельников)
Состав команд: "Составы команд" ▼
Описание: Чемпионат Германии 2012-2013 / 32-й тур / «Боруссия» (Дортмунд) – «Бавария»

Качество:HDTVRip
Продолжительность: 00:47:22 + 00:49:51

Формат: TS
Видео кодек: x264
Аудио кодек: MP3
Свойства видео: 1920x1080 at 25 fps at x264 14,6 Мбит/сек
Свойства аудио: 48 kHzMP33, 2 ch ~128.00 kbps avg
"Media Info" ▼D:ADMINDownloadsÁîðóññèÿ Ä - Áàâàðèÿ#1.ts
General #8900
ID : 8900 (0x22C4)
Complete name : D:ADMINDownloadsÁîðóññèÿ Ä - Áàâàðèÿ#1.ts
Format : MPEG-TS
File size : 4.84 GiB
Duration : 47mn 22s
Overall bit rate mode : Variable
Overall bit rate : 14.6 Mbps
Video #325
ID : 325 (0x145)
Menu ID : 14105 (0x3719)
Format : AVC
Format/Info : Advanced Video Codec
Format profile : [email protected]
Format settings, CABAC : Yes
Format settings, ReFrames : 3 frames
Codec ID : 27
Duration : 47mn 22s
Bit rate : 13.7 Mbps
Width : 1 920 pixels
Height : 1 080 pixels
Display aspect ratio : 16:9
Frame rate : 25.000 fps
Standard : Component
Color space : YUV
Chroma subsampling : 4:2:0
Bit depth : 8 bits
Scan type : Interlaced
Scan order : Top Field First
Bits/(Pixel*Frame) : 0.264
Stream size : 4.53 GiB (94%)
Color primaries : BT.709
Transfer characteristics : BT.709
Matrix coefficients : BT.709
Audio #405
ID : 405 (0x195)
Menu ID : 14105 (0x3719)
Format : MPEG Audio
Format version : Version 1
Format profile : Layer 2
Codec ID : 4
Duration : 47mn 22s
Bit rate mode : Constant
Bit rate : 192 Kbps
Channel(s) : 2 channels
Sampling rate : 48.0 KHz
Compression mode : Lossy
Delay relative to video : -627ms
Stream size : 65.1 MiB (1%)
Language : Russian
Language, more info : Clean effects



b402d0a6684707ae15526eda0283e08dfcfdc196Чемпионат Германии 2012-2013 / 32-й тур / Боруссия (Дортмунд) – Бавария / НТВ+HD [04.05.2013, Футбол, H.264, RU, 1080i] Чемпионат Германии 2012-2013 / 32-й тур / Боруссия (Дортмунд) – Бавария / НТВ+HD [04.05.2013, Футбол, H.264, RU, 1080i] " />

Аплоадер: Админ, дата: 6-05-2013, 03:52, торрент скачан: 359 раз

Понравилась раздача? Посмотрите эти:
  • Чемпионат Германии 2013-14 / Bundesliga Special. Дуэль: «Бавария» - «Борусс ...
  • Чемпионат Германии 2013-14 / 18-й тур / Боруссия (Мёнхенгладбах) - Бавария ...
  • Чемпионат Германии 2013-14 / 13-й тур / Боруссия Д - Бавария / НТВ+ [футбол ...
  • Чемпионат Германии 2013-14 / 13-й тур / Боруссия Д - Бавария / НТВ+ [футбол ...
  • Чемпионат Германии 2013-2014 / 11-й тур / Боруссия Д - Штутгарт / НТВ+ [201 ...
  • Чемпионат Германии 2013-14 / 8-й тур / Боруссия (Мёнхенгладбах) - Боруссия ...
  • Лига Чемпионов 2013-2014 / Группа F / 3-й тур / Арсенал (Лондон, Англия) - ...
  • Чемпионат Германии 2013-14 / 5-й тур / Боруссия (Дортмунд) - Гамбург / НТВ+ ...
  • Суперкубок Германии 2013 / Боруссия Дортмунд - Баварию Мюнхен / Спорт 1 HD ...
  • Суперкубок Германии 2013 / Боруссия (Дортмунд) - Бавария / НТВ+ [Футбол, 27 ...
  • Суперкубок Германии 2013 / Боруссия (Дортмунд) - Бавария / НТВ+ [27.07.2013 ...
  • Чемпионат Германии 2013-14 / 1-й тур / Бавария - Боруссия (Мёнхенгладбах) / ...
  • Чемпионат Германии 2013-14 / 1-й тур / Бавария - Боруссия М / НТВ+ [Футбол, ...
  • Чемпионат Германии 2013-14 / 1-й тур / Аугсбург - Боруссия Дортмунд / НТВ+ ...
  • Лига Чемпионов 2012-13 / Финал / Боруссия Дортмунд (Германия) - Бавария Мюн ...
  • Лига Чемпионов 2012-13 / Финал / Боруссия Дортмунд (Германия) - Бавария Мюн ...
  • Чемпионат Германии 2012-13 / 32-й тур / Боруссия (Дортмунд) - Бавария / НТ ...
  • Чемпионат Германии 2012-13 / 32-й тур / Боруссия Д — Бавария / НТВ+ [футбол ...
  • Чемпионат Германии 2012-13 / 29-й Тур / Бавария - Нюрнберг / НТВ+ [Футбол, ...
  • Чемпионат Германии 2012-13 / 29-й тур / Гройтер Фюрт — Боруссия (Д) / НТВ+ ...
  • Чемпионат Германии 2012-13 / 24-й Тур / Боруссия (Д) - Ганновер / НТВ+ [фут ...
  • Кубок Германии 2012-13 / 1/4 финала / Бавария – Боруссия (Дортмунд) / Спорт ...
  • Чемпионат Испании 2011-12 / 35-й тур / Барселона - Реал / Футбол HD [Футбол ...
  • Кубок Германии 2011-12 / DFB Pokal / Финал / Боруссия (Дортмунд) — Бавария ...
  • Суперкубок Германии 2012 / DFL Supercup / Бавария (Мюнхен) — Боруссия (Дорт ...
  • Информация
    Посетители, находящиеся в группе Гости, не могут оставлять комментарии к данной публикации.