вход на сайт

Имя пользователя :
Пароль :

Восстановление пароля Регистрация
Чемпионат Англии 2012-2013 / 36-й тур / Манчестер Юнайтед - Челси / Спорт 1 HD [05.05.2013, Футбол, H.264, HDTV 1080i]
Рейтинг:
(голосов: 1)



[img]{THEME}/images/logopost.png[/img]




Чемпионат Англии 2012-2013 / 36-й тур / Манчестер Юнайтед - Челси

Вид спорта:: Футбол
Год выпуска: 5.05.2013
Язык комментариев: Русский
Состав команд: "Составы" ▼

Описание: Матч 36-ого тура АПЛ между командами Манчестер Юнайтед - Челси


Качество: HDTVRip
Продолжительность: 01:55:01

Формат: TS
Видео кодек:H.264
Аудио кодек:MP2
Свойства видео: 1920х1080, (16:9) 25.00 fps,H.264 15 mbps
Свойства аудио: 48 kHz, MP2 stereo, 2 ch, 192 Kbps

"Media info" ▼D:ADMINDownloadsÌÞ - ×åëñè.ts
General #20
ID : 20 (0x14)
Complete name : D:ADMINDownloadsÌÞ - ×åëñè.ts
Format : MPEG-TS
File size : 8.96 GiB
Duration : 1h 55mn
Overall bit rate mode : Variable
Overall bit rate : 11.2 Mbps
Video #303
ID : 303 (0x12F)
Menu ID : 20103 (0x4E87)
Format : AVC
Format/Info : Advanced Video Codec
Format profile : [email protected]
Format settings, CABAC : Yes
Format settings, ReFrames : 3 frames
Format settings, GOP : M=4, N=28
Codec ID : 27
Duration : 1h 55mn
Bit rate : 10.4 Mbps
Width : 1 920 pixels
Height : 1 080 pixels
Display aspect ratio : 16:9
Frame rate : 25.000 fps
Standard : Component
Color space : YUV
Chroma subsampling : 4:2:0
Bit depth : 8 bits
Scan type : Interlaced
Scan order : Top Field First
Bits/(Pixel*Frame) : 0.201
Stream size : 8.36 GiB (93%)
Color primaries : BT.709
Transfer characteristics : BT.709
Matrix coefficients : BT.709
Audio #403
ID : 403 (0x193)
Menu ID : 20103 (0x4E87)
Format : MPEG Audio
Format version : Version 1
Format profile : Layer 2
Codec ID : 4
Duration : 1h 55mn
Bit rate mode : Constant
Bit rate : 192 Kbps
Channel(s) : 2 channels
Sampling rate : 48.0 KHz
Compression mode : Lossy
Delay relative to video : -630ms
Stream size : 158 MiB (2%)



ba3e421e1d7ecd9a241d348ed2d164f505250f95Чемпионат Англии 2012-2013 / 36-й тур / Манчестер Юнайтед - Челси / Спорт 1 HD [05.05.2013, Футбол, H.264, HDTV 1080i] Чемпионат Англии 2012-2013 / 36-й тур / Манчестер Юнайтед - Челси / Спорт 1 HD [05.05.2013, Футбол, H.264, HDTV 1080i] " />

Аплоадер: Админ, дата: 6-05-2013, 02:19, торрент скачан: 359 раз

Понравилась раздача? Посмотрите эти:
  • Чемпионат Англии 2013-2014 / 17-й тур / Арсенал - Челси / НТВ+ Футбол HD [ф ...
  • Чемпионат Англии 2013-2014 / 22-й тур / Челси - Манчестер Юнайтед / НТВ+ Фу ...
  • Чемпионат Англии 2013-2014 / 22-й тур / Челси - Манчестер Юнайтед / НТВ+ [ ...
  • Чемпионат Англии 2013-2014 / 23-й тур / Манчестер Юнайтед - Кардифф Сити / ...
  • Чемпионат Англии 2013-2014 / 11-й тур / Манчестер Юнайтед - Арсенал / НТВ+ ...
  • Чемпионат Англии 2013-2014 / 4-й тур / Манчестер Юнайтед - Кристал Пэлас / ...
  • Чемпионат Англии 2012-2013 / 36 тур / Манчестер Юнайтед - Челси / Спорт 1 [ ...
  • Чемпионат Англии 2012-2013 / 35 тур / Арсенал - Манчестер Юнайтед / Спорт 1 ...
  • Чемпионат Англии 2012-2013 / 32-й тур / Манчестер Юнайтед - Манчестер Сити ...
  • Чемпионат Англии 2012-2013 / 32 тур / Манчестер Юнайтед — Манчестер Сити / ...
  • Чемпионат Англии 2012-2013 / 32-й тур / Манчестер Юнайтед - Манчестер Сити ...
  • Кубок Англии 2012-13 / 1/4 финала / Переигровка / Челси - Манчестер Юнайтед ...
  • Кубок Англии 2012-13 / 1/4 финала / Манчестер Юнайтед - Челси / Спорт 1 [фу ...
  • Чемпионат Англии 2012-13 / 24-й Тур / Манчестер Юнайтед - Саутгемптон / Спо ...
  • Чемпионат Англии 2012-13 / 25-й тур / Фулхэм — Манчестер Юнайтед / Спорт 1 ...
  • Чемпионат Англии 2012-2013 / 5-й тур / Ливерпуль - Манчестер Юнайтед / Спор ...
  • Чемпионат Англии 2012-13 / 10 тур / Манчестер Юнайтед - Арсенал / Спорт 1 H ...
  • Чемпионат Англии 2012-13 / 10-й тур / Манчестер Юнайтед (Манчестер) - Арсен ...
  • Чемпионат Англии 2012-13 / 16-й тур / Манчестер Сити — Манчестер Юнайтед / ...
  • Чемпионат Англии 2012-13 / 19-й тур / Манчестер Юнайтед - Ньюкасл / Спорт ...
  • Чемпионат Англии 2012-2013 / 22-й тур / Манчестер Юнайтед (Манчестер) - Лив ...
  • Чемпионат Англии 2012-2013 / 22-й тур / Манчестер Юнайтед - Ливерпуль / Спо ...
  • Чемпионат Англии 2012-13 / 16 тур / Манчестер Сити - Манчестер Юнайтед / С ...
  • Чемпионат Англии 2011-12 / 5-й тур / Манчестер Юнайтед - Челси / Спорт 1 [1 ...
  • Чемпионат Англии 2012-13 /9 тур/ Челси-Манчестер Юнайтед / Спорт 1 HD [фу ...
  • Информация
    Посетители, находящиеся в группе Гости, не могут оставлять комментарии к данной публикации.