вход на сайт

Имя пользователя :
Пароль :

Восстановление пароля Регистрация
Чемпионат Англии 2013-14 / 1-й тур / Preview / НТВ+ [16.08.2013, 720p, x264, RU, HDTVRip]
Рейтинг:
(голосов: 1)



[img]{THEME}/images/logopost.png[/img]



Чемпионат Англии 2013-14 / 1-й тур / Preview

Вид спорта:: футбол.
Год выпуска: 16/08/2013
Язык комментариев: Русский ( Одноголосый )( Артем Шмельков )
Участники: Футболисты Тренера

Описание:Превью матчей 1-го тура чемпионата Англии сезона 2013-14.

"Расписание матчей на первый тур" ▼

Канал:
Качество:HDTVRip
Продолжительность: 00:26:10

Формат:MKV
Видео кодек: x264
Аудио кодек: AC3
Свойства видео: 1280x720 (16/9), 25 fps,x264 ~3414 kbps avg,
Свойства аудио: 48 kHz, AC3, 2 ch, ~128.00 kbps avg
"Media Info" ▼D:ADMINDownloadsEPL 13-14 Week 01 Preview720p.mkv
General
Unique ID : 235782313200646026757937176588391711259 (0xB16205906CD03422ADBCBB58A7DA821B)
Complete name : D:ADMINDownloadsEPL 13-14 Week 01 Preview720p.mkv
Format : Matroska
Format version : Version 2
File size : 676 MiB
Duration : 26mn 10s
Overall bit rate : 3 614 Kbps
Encoded date : UTC 2013-08-16 18:43:08
Writing application : mkvmerge v5.4.0 (Piper) built on Mar 10 2012 13:34:39
Writing library : libebml v1.2.3 + libmatroska v1.3.0
Video #1
ID : 1
Format : AVC
Format/Info : Advanced Video Codec
Format profile : [email protected]
Format settings, CABAC : Yes
Format settings, ReFrames : 4 frames
Codec ID : V_MPEG4/ISO/AVC
Duration : 26mn 10s
Bit rate : 3 414 Kbps
Width : 1 280 pixels
Height : 720 pixels
Display aspect ratio : 16:9
Frame rate mode : Constant
Frame rate : 25.000 fps
Color space : YUV
Chroma subsampling : 4:2:0
Bit depth : 8 bits
Scan type : Progressive
Bits/(Pixel*Frame) : 0.148
Stream size : 639 MiB (94%)
Default : Yes
Forced : No
Color primaries : BT.709
Transfer characteristics : BT.709
Matrix coefficients : BT.709
Audio #2
ID : 2
Format : AC-3
Format/Info : Audio Coding 3
Mode extension : CM (complete main)
Format settings, Endianness : Big
Codec ID : A_AC3
Duration : 26mn 10s
Bit rate mode : Constant
Bit rate : 128 Kbps
Channel(s) : 2 channels
Channel positions : Front: L R
Sampling rate : 48.0 KHz
Bit depth : 16 bits
Compression mode : Lossy
Stream size : 24.0 MiB (4%)
&
8d31e9fa181c00fe933556b363e3e0d350db2079 Чемпионат Англии 2013-14 / 1-й тур / Preview / НТВ+ [16.08.2013, 720p, x264, RU, HDTVRip] Чемпионат Англии 2013-14 / 1-й тур / Preview / НТВ+ [16.08.2013, 720p, x264, RU, HDTVRip] " />

Аплоадер: Админ, дата: 17-08-2013, 01:18, торрент скачан: 359 раз

Понравилась раздача? Посмотрите эти:
  • Чемпионат Англии 2013-14 / 17-й тур / Обзор Матчей / НТВ+ [Футбол, 24.12.20 ...
  • Чемпионат Англии 2013-14 / 19-й тур / Preview / НТВ+ [Футбол, 27.12.2013, 7 ...
  • Чемпионат Англии 2013-14 / 19-й тур / Обзор Матчей / НТВ+ [Футбол, 30.12.20 ...
  • Чемпионат Англии 2013-14 / 21-й тур / Preview / НТВ+ [Футбол, 10.01.2014, 7 ...
  • Чемпионат Англии 2013-14 / 4-й тур / Preview / НТВ+ [Футбол, 13.09.2013, 72 ...
  • Чемпионат Испании 2013-14 / 4-й тур / Preview / НТВ+ [Футбол, 13.09.2013, 7 ...
  • Чемпионат Англии 2013-14 / 3-й тур / Манчестер Сити - Халл Сити / НТВ+ [31 ...
  • Чемпионат Англии 2013-14 / 3-й тур / Разогрев / НТВ+ [31.08.2013, 720p, x2 ...
  • Чемпионат Италии 2013-14 / 2-й тур / Preview / НТВ+ [30.08.2013, 720p, x26 ...
  • Чемпионат Германии 2013-14 / 4-й тур / Preview / НТВ+ [30.08.2013, 720p, x2 ...
  • Чемпионат Испании 2013-14 / 3-й тур / Preview / НТВ+ [30.08.2013, 720p, x26 ...
  • Чемпионат Англии 2013-14 / 3-й тур / Preview / НТВ+ [30.08.2013, 720p, x26 ...
  • Чемпионат Англии 2013-14 / 2-й тур / Кардифф Сити - Манчестер Сити / НТВ+ ...
  • Чемпионат Испании 2013-14 / 2-й тур / Preview / НТВ+ [23.08.2013, 720p, x2 ...
  • Чемпионат Германии 2013-14 / 3-й тур / Preview / НТВ+ [23.08.2013, 720p, x2 ...
  • Чемпионат Италии 2013-14 / 1-й тур / Preview / НТВ+ [23.08.2013, 720p, x264 ...
  • Чемпионат Англии 2013-14 / 2-й тур / Preview / НТВ+ [23.08.2013, 720p, x264 ...
  • Чемпионат Англии 2013-14 / 1-й тур / Обзор Матчей / НТВ+ [20.08.2013, 720p, ...
  • Чемпионат Англии 2013-14 / К старту нового сезона / НТВ+ [Футбол, 14.08.201 ...
  • Чемпионат Англии 2013-14 / 1-й тур / Preview / НТВ+ [Футбол, 16.08.2013, 72 ...
  • Информация
    Посетители, находящиеся в группе Гости, не могут оставлять комментарии к данной публикации.