вход на сайт

Имя пользователя :
Пароль :

Восстановление пароля Регистрация
Чемпионат Англии 2013-14 / 2-й тур / Preview / НТВ+ [23.08.2013, 720p, x264, RU, HDTVRip]
Рейтинг:
(голосов: 1)



[img]{THEME}/images/logopost.png[/img]



Чемпионат Англии 2013-14 / 2-й тур / Preview

Вид спорта:: футбол
Год выпуска: 23.08.2013
Язык комментариев: Русский
Участники: Футболисты Тренеры


Описание:Чемпионат Англии 2013-14 / 2-й тур / Preview

Канал:


Качество: HDTVRip
Продолжительность:00:25:42

Формат: MKV
Видео кодек:Н264
Аудио кодек: AC3
Свойства видео: 1280x720 (16:9), 25 fps, Н264 ~3500 kbps avg
Свойства аудио: 48 kHz, AC3, 2 ch, ~128.00 kbps avg


"Media info" ▼D:ADMINDownloadsEPL 13-14 Week 02 Preview720p.mkv
General
Unique ID : 200206316446361324962219310714131386534 (0x969E55805D8E75AA97993C5EBC8510A6)
Complete name : D:ADMINDownloadsEPL 13-14 Week 02 Preview720p.mkv
Format : Matroska
Format version : Version 2
File size : 662 MiB
Duration : 25mn 42s
Overall bit rate : 3 600 Kbps
Encoded date : UTC 2013-08-23 18:28:33
Writing application : mkvmerge v5.4.0 (Piper) built on Mar 10 2012 13:34:39
Writing library : libebml v1.2.3 + libmatroska v1.3.0
Video #1
ID : 1
Format : AVC
Format/Info : Advanced Video Codec
Format profile : [email protected]
Format settings, CABAC : Yes
Format settings, ReFrames : 4 frames
Codec ID : V_MPEG4/ISO/AVC
Duration : 25mn 42s
Bit rate : 3 401 Kbps
Width : 1 280 pixels
Height : 720 pixels
Display aspect ratio : 16:9
Frame rate mode : Constant
Frame rate : 25.000 fps
Color space : YUV
Chroma subsampling : 4:2:0
Bit depth : 8 bits
Scan type : Progressive
Bits/(Pixel*Frame) : 0.148
Stream size : 625 MiB (94%)
Default : Yes
Forced : No
Color primaries : BT.709
Transfer characteristics : BT.709
Matrix coefficients : BT.709
Audio #2
ID : 2
Format : AC-3
Format/Info : Audio Coding 3
Mode extension : CM (complete main)
Format settings, Endianness : Big
Codec ID : A_AC3
Duration : 25mn 42s
Bit rate mode : Constant
Bit rate : 128 Kbps
Channel(s) : 2 channels
Channel positions : Front: L R
Sampling rate : 48.0 KHz
Bit depth : 16 bits
Compression mode : Lossy
Stream size : 23.5 MiB (4%)
Language : Russian
D
49bf9e06905d602305d710fbdd00ba47cbd120e3Чемпионат Англии 2013-14 / 2-й тур / Preview / НТВ+ [23.08.2013, 720p, x264, RU, HDTVRip] Чемпионат Англии 2013-14 / 2-й тур / Preview / НТВ+ [23.08.2013, 720p, x264, RU, HDTVRip] " />

Аплоадер: Админ, дата: 24-08-2013, 01:22, торрент скачан: 359 раз

Понравилась раздача? Посмотрите эти:
  • Чемпионат Англии 2013-14 / 19-й тур / Preview / НТВ+ [Футбол, 27.12.2013, 7 ...
  • Чемпионат Англии 2013-14 / 21-й тур / Preview / НТВ+ [Футбол, 10.01.2014, 7 ...
  • Чемпионат Франции 2013-14 / 20-й тур / Preview / НТВ+ [Футбол, 10.01.2014, ...
  • Чемпионат Германии 2013-14 / 5-й тур / Preview / НТВ+ [Футбол, 13.09.2013, ...
  • Чемпионат Англии 2013-14 / 4-й тур / Preview / НТВ+ [Футбол, 13.09.2013, 72 ...
  • Чемпионат Англии 2013-14 / 3-й тур / Манчестер Сити - Халл Сити / НТВ+ [31 ...
  • Чемпионат Англии 2013-14 / 3-й тур / Разогрев / НТВ+ [31.08.2013, 720p, x2 ...
  • Чемпионат Италии 2013-14 / 2-й тур / Preview / НТВ+ [30.08.2013, 720p, x26 ...
  • Чемпионат Германии 2013-14 / 4-й тур / Preview / НТВ+ [30.08.2013, 720p, x2 ...
  • Чемпионат Испании 2013-14 / 3-й тур / Preview / НТВ+ [30.08.2013, 720p, x26 ...
  • Чемпионат Англии 2013-14 / 3-й тур / Preview / НТВ+ [30.08.2013, 720p, x26 ...
  • Чемпионат Англии 2013-14 / Английский акцент / 2-й тур / Обзор / НТВ+ [25. ...
  • Чемпионат Англии 2013-14 / 2-й тур / Кардифф Сити - Манчестер Сити / НТВ+ ...
  • Чемпионат Испании 2013-14 / 2-й тур / Preview / НТВ+ [23.08.2013, 720p, x2 ...
  • Чемпионат Германии 2013-14 / 3-й тур / Preview / НТВ+ [23.08.2013, 720p, x2 ...
  • Чемпионат Италии 2013-14 / 1-й тур / Preview / НТВ+ [23.08.2013, 720p, x264 ...
  • Чемпионат Англии 2013-14 / 1-й тур / Обзор Матчей / НТВ+ [20.08.2013, 720p, ...
  • Чемпионат Англии 2013-14 / К старту нового сезона / НТВ+ [Футбол, 14.08.201 ...
  • Чемпионат Англии 2013-14 / 1-й тур / Preview / НТВ+ [16.08.2013, 720p, x26 ...
  • Чемпионат Англии 2013-14 / 1-й тур / Preview / НТВ+ [Футбол, 16.08.2013, 72 ...
  • Информация
    Посетители, находящиеся в группе Гости, не могут оставлять комментарии к данной публикации.