вход на сайт

Имя пользователя :
Пароль :

Восстановление пароля Регистрация
Чемпионат Германии 2013-14 / 4-й тур / Preview / НТВ+ [30.08.2013, 720p, x264, RU, HDTVRip]
Рейтинг:
(голосов: 1)



[img]{THEME}/images/logopost.png[/img]



Чемпионат Германии 2013-14 / 4-й тур / Preview

Вид спорта:: футбол
Год выпуска: 30/08/2013
Язык комментариев: Русский (Одноголосый)
Участники/ Состав команд: Футболисты Тренера

Описание: Чемпионат Германии 2013-14 / 4-й тур / Preview


Канал:



Качество:HDTVRip
Продолжительность: 00:25:59

Формат: MKV
Видео кодек:H.264
Аудио кодек:AС3
Свойства видео: 1280x720 (16/9), 25fps H.264 ~3500 kbps avg,
Свойства аудио: 48 kHz, AС3, 2 ch, ~128.00 kbps avg

"Media Info" ▼D:ADMINDownloadsBundesliga 13-14 Week 04 Preview 720p.mkv
General
Unique ID : 190890273599103094446278579125333617357 (0x8F9C212077E924FC978299734D516ACD)
Complete name : D:ADMINDownloadsBundesliga 13-14 Week 04 Preview 720p.mkv
Format : Matroska
Format version : Version 2
File size : 677 MiB
Duration : 25mn 59s
Overall bit rate : 3 645 Kbps
Encoded date : UTC 2013-08-30 18:11:49
Writing application : mkvmerge v5.4.0 (Piper) built on Mar 10 2012 13:34:39
Writing library : libebml v1.2.3 + libmatroska v1.3.0
Video #1
ID : 1
Format : AVC
Format/Info : Advanced Video Codec
Format profile : [email protected]
Format settings, CABAC : Yes
Format settings, ReFrames : 4 frames
Codec ID : V_MPEG4/ISO/AVC
Duration : 25mn 59s
Bit rate : 3 445 Kbps
Width : 1 280 pixels
Height : 720 pixels
Display aspect ratio : 16:9
Frame rate mode : Constant
Frame rate : 25.000 fps
Color space : YUV
Chroma subsampling : 4:2:0
Bit depth : 8 bits
Scan type : Progressive
Bits/(Pixel*Frame) : 0.150
Stream size : 640 MiB (94%)
Default : Yes
Forced : No
Color primaries : BT.709
Transfer characteristics : BT.709
Matrix coefficients : BT.709
Audio #2
ID : 2
Format : AC-3
Format/Info : Audio Coding 3
Mode extension : CM (complete main)
Format settings, Endianness : Big
Codec ID : A_AC3
Duration : 25mn 59s
Bit rate mode : Constant
Bit rate : 128 Kbps
Channel(s) : 2 channels
Channel positions : Front: L R
Sampling rate : 48.0 KHz
Bit depth : 16 bits
Compression mode : Lossy
Stream size : 23.8 MiB (4%)
Language : Russian
815d575dbcb1d47434a9f4d015172d26f838e47cЧемпионат Германии 2013-14 / 4-й тур / Preview / НТВ+ [30.08.2013, 720p, x264, RU, HDTVRip] Чемпионат Германии 2013-14 / 4-й тур / Preview / НТВ+ [30.08.2013, 720p, x264, RU, HDTVRip] " />

Аплоадер: Админ, дата: 31-08-2013, 14:11, торрент скачан: 359 раз

Понравилась раздача? Посмотрите эти:
  • Чемпионат Германии 2013-14 / Bundesliga Special. Хосеп Гвардиола / НТВ+ [Фу ...
  • Чемпионат Англии 2013-14 / 19-й тур / Preview / НТВ+ [Футбол, 27.12.2013, 7 ...
  • Чемпионат Германии 2013-14 / Итоги первого круга / НТВ+ [Футбол, 28.12.2013 ...
  • Чемпионат Германии 2013-14 / Bundesliga Special. Юлиан Дракслер / НТВ+ [Фут ...
  • Чемпионат Англии 2013-14 / 21-й тур / Preview / НТВ+ [Футбол, 10.01.2014, 7 ...
  • Чемпионат Франции 2013-14 / 20-й тур / Preview / НТВ+ [Футбол, 10.01.2014, ...
  • Чемпионат Германии 2013-14 / 18-й тур / Preview / НТВ+ [Футбол, 24.01.2014, ...
  • Чемпионат Италии 2013-14 / 3-й тур / Preview / НТВ+ [Футбол, 13.09.2013, 72 ...
  • Чемпионат Германии 2013-14 / 5-й тур / Preview / НТВ+ [Футбол, 13.09.2013, ...
  • Чемпионат Англии 2013-14 / 4-й тур / Preview / НТВ+ [Футбол, 13.09.2013, 72 ...
  • Чемпионат Испании 2013-14 / 4-й тур / Preview / НТВ+ [Футбол, 13.09.2013, 7 ...
  • Чемпионат Англии 2013-14 / 3-й тур / Разогрев / НТВ+ [31.08.2013, 720p, x2 ...
  • Чемпионат Италии 2013-14 / 2-й тур / Preview / НТВ+ [30.08.2013, 720p, x26 ...
  • Чемпионат Испании 2013-14 / 3-й тур / Preview / НТВ+ [30.08.2013, 720p, x26 ...
  • Чемпионат Англии 2013-14 / 3-й тур / Preview / НТВ+ [30.08.2013, 720p, x26 ...
  • Чемпионат Испании 2013-14 / 2-й тур / Preview / НТВ+ [23.08.2013, 720p, x2 ...
  • Чемпионат Германии 2013-14 / 3-й тур / Preview / НТВ+ [23.08.2013, 720p, x2 ...
  • Чемпионат Италии 2013-14 / 1-й тур / Preview / НТВ+ [23.08.2013, 720p, x264 ...
  • Чемпионат Англии 2013-14 / 2-й тур / Preview / НТВ+ [23.08.2013, 720p, x264 ...
  • Чемпионат Англии 2013-14 / 1-й тур / Обзор Матчей / НТВ+ [20.08.2013, 720p, ...
  • Чемпионат Германии 2013-14 / 1-й тур / Обзор Матчей / НТВ+ [Футбол, 12.08.2 ...
  • Чемпионат Англии 2013-14 / 1-й тур / Preview / НТВ+ [16.08.2013, 720p, x26 ...
  • Чемпионат Германии 2013-14 / 2-й тур / Preview / НТВ+ [Футбол, 16.08.2013, ...
  • Чемпионат Англии 2013-14 / 1-й тур / Preview / НТВ+ [Футбол, 16.08.2013, 72 ...
  • Чемпионат Испании 2013-14 / 1-й тур / Preview / НТВ+ [Футбол, 16.08.2013, 7 ...
  • Информация
    Посетители, находящиеся в группе Гости, не могут оставлять комментарии к данной публикации.